<?xml version="1.0" standalone="no"?>
<!DOCTYPE svg PUBLIC "-//W3C//DTD SVG 1.1//EN" "http://www.w3.org/Graphics/SVG/1.1/DTD/svg11.dtd" >
<svg xmlns="http://www.w3.org/2000/svg">
<metadata>
<json>
<![CDATA[
{
	"fontFamily": "Rjdaoico",
	"majorVersion": 1,
	"minorVersion": 0,
	"description": "Font generated by IcoMoon.",
	"version": "Version 1.0",
	"fontId": "Rjdaoico",
	"psName": "Rjdaoico",
	"subFamily": "Regular",
	"fullName": "Rjdaoico"
}
]]>
</json>
</metadata>
<defs>
<font id="Rjdaoico" horiz-adv-x="1024">
<font-face units-per-em="1024" ascent="960" descent="-64" />
<missing-glyph horiz-adv-x="1024" />
<glyph unicode="&#x20;" horiz-adv-x="512" d="" />
<glyph unicode="&#xe900;" glyph-name="e900" data-tags="" d="M488.141 700.211h23.859v26.112h-23.859zM860.774 320.819c0 17.613-14.336 32.051-31.949 32.051s-32.051-14.541-32.051-32.051c0-17.613 14.438-32.051 32.051-32.051s31.949 14.438 31.949 32.051zM800.051 320.819c0 15.77 12.902 28.672 28.672 28.672 15.872 0 28.672-13.005 28.672-28.672 0-15.872-12.902-28.672-28.672-28.672-15.77 0.102-28.672 12.902-28.672 28.672zM861.798 386.867c0 0-13.722 10.342-32.973 8.704v-37.786c0 0 10.138-0.41 14.541-3.789l18.432 32.87zM842.957 320.819c0-7.861-6.373-14.234-14.234-14.234s-14.234 6.373-14.234 14.234c0 7.861 6.373 14.234 14.234 14.234s14.234-6.373 14.234-14.234zM729.498 449.024c5.222 11.674 11.366 23.245 17.818 34.509l22.733-20.685 0.102 0.102c0 0 0.102-0.102 0.102-0.205 13.312-13.414 34.918-13.414 48.128 0 13.414 13.107 13.414 34.918 0.102 48.128 0 0.102-0.102 0.102-0.102 0.205l-35.328 35.226c2.458 4.915 5.325 9.83 7.68 14.541 16.077 34.509 29.594 80.691-5.018 108.544-28.262 22.938-75.981 15.77-109.568 16.077-20.582 0.41-43.008 1.536-59.802 14.746-17.715 14.029-16.384 40.141-11.469 63.283 4.198 1.331 7.68 4.813 7.68 9.728v70.758c0 5.734-4.403 10.24-9.83 10.547l0.102 0.307c0.102 1.741 0.205 3.482 0.205 5.325 0 33.075-11.162 38.195-32.256 58.88-19.968 19.763-40.55 30.72-70.758 30.72s-50.79-10.854-70.861-30.618c-21.094-20.582-32.256-25.805-32.256-58.88 0-1.331 0.102-2.56 0.205-3.891v-1.638c-5.427-0.41-9.728-4.915-9.728-10.65v-70.758c0-5.939 4.506-10.752 10.24-10.752h3.482c2.048-2.253 4.813-3.379 7.68-3.379h10.445c5.939 0 10.752 5.018 10.752 11.264v0.819c13.312-26.522 40.448-44.954 72.090-44.954 29.696 0 55.398 16.179 69.53 40.038 1.638-3.891 4.71-7.168 9.216-7.168h10.445c2.253 0 3.994 1.229 5.734 2.56-4.813-24.576-5.325-51.814 12.288-67.686-16.589 5.12-28.365 6.144-28.365 6.144h-68.813v-2.97h-23.859v2.97h-69.734v-0.102c-3.072-0.205-56.525-5.325-97.894-48.128l-79.258-79.155c-0.102-0.102-0.102-0.205-0.205-0.307l48.23-48.23c0.102 0.102 0.205 0.205 0.307 0.307v-4.403l87.245 78.746h19.046v-149.709h-107.827v21.914h-52.838l45.056 41.37v4.403c-0.102-0.205-0.102-0.307-0.205-0.41l-48.23 48.128-53.453-53.453c-0.102-0.102-0.102-0.102-0.205-0.205-10.854-10.854-12.39-27.136-5.427-40.141h-60.211v-21.914h-82.944v-502.682h964.813v502.784h-265.011zM580.71 858.112c-5.018 0-8.499-3.789-9.83-8.704-14.234 23.245-39.629 38.912-68.813 38.912-31.744 0-58.88-18.33-72.090-44.954v3.482c0 6.246-4.813 11.264-10.752 11.264h-6.963c0.614 52.838 32.256 76.288 89.907 76.288 51.712 0 84.787-23.142 85.709-76.288h-7.168zM488.141 692.634h23.859v-29.082h-23.859v29.082zM488.141 653.312h23.859v-29.184h-23.859v29.184zM488.141 612.966h23.859v-29.082h-23.859v29.082zM488.141 572.723h23.859v-28.979h-23.859v28.979zM488.141 531.046h23.859v-29.082h-23.859v29.082zM488.141 489.574h23.859v-28.979h-23.859v28.979zM353.382-40.243h-65.126v108.134h65.126v-108.134zM353.382 87.347h-65.126v38.707h65.126v-38.707zM353.382 142.336h-65.126v38.707h65.126c0 0 0-38.707 0-38.707zM449.331-34.304h-65.229v108.237h65.229c0 0 0-108.237 0-108.237zM449.331 93.286h-65.229v38.707h65.229c0 0 0-38.707 0-38.707zM449.331 148.275h-65.229v38.707h65.229c0 0 0-38.707 0-38.707zM449.331 204.288h-65.229v38.707h65.229c0-0.102 0-38.707 0-38.707zM547.942-34.304h-65.126v218.214h65.126v-218.214zM547.942 203.264h-65.126v38.707h65.126v-38.707zM547.942 258.253h-65.126v38.707h65.126v-38.707zM547.942 314.266h-65.126v38.81h65.126v-38.81zM899.379 358.81c0 0 0-0.102 0-0.102 0 0.102-0.102 0.307-0.102 0.307 0-0.102 0.102-0.102 0.102-0.205zM600.576 598.733h22.323l81.818-74.342c0.307 0 0.614 0 0.819 0l0.102 0.102c0.102-0.102 1.946-0.102 3.277-0.205l48.23 48.128 0.717-0.819 0.819 0.819c-0.102 0.102-79.565 79.462-79.565 79.462-11.059 11.469-22.938 20.173-34.406 26.726 30.003-5.632 63.488-0.512 92.877-3.072 24.166-2.253 45.978-10.752 57.754-33.075 14.234-26.931-1.843-63.181-16.691-91.546l-12.902 12.902-47.616-47.514c0 0-0.717 0.102-1.331 0.102l-0.102-0.102c-0.102 0.102-1.946 0.102-3.277 0.205l-0.41-0.41-0.614 0.512c-0.205 0-0.614 0-0.614 0.102l-0.512-0.512 31.744-28.877c-7.168-12.493-14.336-25.19-20.378-38.298h-122.163v149.709h0.102zM641.843-34.304h-65.024v132.71h65.024v-132.71zM641.843 117.76h-65.024v38.707h65.024v-38.707zM641.843 172.749h-65.024v38.707h65.024v-38.707zM641.843 228.659h-65.024v38.707h65.024v-38.707zM740.966-34.304h-65.126v108.237h65.126v-108.237zM740.966 93.286h-65.126v38.707h65.126v-38.707zM740.966 148.275h-65.126v38.707h65.126v-38.707zM740.966 204.288h-65.126v38.707h65.126v-38.707zM794.419 433.050v-4.813c-31.334 0-45.158-28.262-45.261-28.57l-4.198 2.15c0 0.205 15.155 31.232 49.459 31.232zM794.010 413.594v-4.915c-18.33 0-26.317-16.077-26.624-16.794l-4.301 2.15c0.307 0.819 9.421 19.558 30.925 19.558zM747.008 320.819c0 44.339 35.942 80.282 80.282 80.282 33.69 0 62.566-20.685 74.342-50.176-1.741-1.946-2.867-4.301-3.379-7.168-0.102-0.307-0.102-0.819-0.102-0.922-3.072 2.867-5.325 5.018-6.144 5.734-1.536 1.638-3.789 2.56-6.349 2.56-3.584 0-7.168-1.741-9.626-4.403-1.946-2.253-2.867-4.915-2.867-7.578-0.512-2.253 0.41-4.71 3.174-8.397-4.71 0.102-9.011-2.15-10.957-5.837-1.024-2.15-2.355-6.656 1.946-12.698l0.41-0.512c7.885-9.011 14.131-15.258 19.968-21.197 2.56-2.56 5.222-5.018 7.885-7.782 0.512-0.614 0.922-1.024 1.536-1.638-0.614-0.819-1.024-1.741-1.536-2.56-4.813 2.355-9.933 4.301-14.541 4.301-1.024 0-2.048-0.102-2.97-0.307l-0.922-0.307-0.819-0.512c-4.198-2.867-5.427-6.349-5.734-8.704-0.614-5.325 2.97-9.421 3.686-10.035l0.41-0.614 0.614-0.307c1.126-0.717 2.355-1.536 3.789-2.458-13.926-11.674-31.846-18.842-51.507-18.842-44.749-0.102-80.589 35.84-80.589 80.077zM864.666 234.598c-0.614-0.614-15.462-15.258-35.738-8.294l1.536 4.506c17.408-6.042 30.208 6.554 30.822 7.168l3.379-3.379zM822.17 208.077l1.536 4.506c29.696-10.24 52.019 11.878 52.224 12.083l3.482-3.379c-0.205-0.102-24.781-24.474-57.242-13.21zM948.838 235.622c0 0 1.229 4.198-6.349 5.325 0 0-18.022 0.307-31.539 4.71-3.891 1.946-13.926 4.506-17.51 9.011-3.482 4.301-14.643 11.469-14.643 11.469s-5.53 5.837 1.126 10.342c7.885 1.741 24.986-10.138 24.986-10.138s7.27-0.512 5.427 4.403c0 0-2.15 6.861-10.24 15.258-8.909 9.114-16.384 16.077-27.546 28.774-6.349 9.216 4.813 11.674 7.885 8.397 1.024 0.614 32.87-29.798 35.226-27.034 1.536 1.741-38.502 37.376-36.045 41.779-0.819 5.53 6.861 8.909 9.421 6.246 2.97-2.97 44.032-41.165 43.11-37.171-1.331 4.506-27.955 32.768-27.546 35.533 0.819 6.246 6.963 8.602 10.957 3.482 0.922-1.229 30.72-39.014 31.437-35.226 1.024 4.608-10.035 15.974-14.848 26.317-2.765 6.042 5.325 7.168 8.192 2.662 5.018-8.090 23.962-33.792 24.986-35.738 0 0 10.138-16.179 16.282-39.526l2.048-7.475-34.816-21.402z" />
<glyph unicode="&#xe901;" glyph-name="e901" data-tags="" d="M490.394 368.435c-268.083 0-480.154-35.738-480.154-79.667 0-44.032 212.070-79.667 480.154-79.667s489.472 35.635 489.472 79.667c0.102 44.032-221.286 79.667-489.472 79.667zM481.485 267.776c-62.054 0-112.435 15.36-112.435 34.406s50.381 34.406 112.435 34.406 112.435-15.36 112.435-34.406c0-19.046-50.381-34.406-112.435-34.406zM874.496 686.797h-234.803l-125.338-145.306-59.699 143.36h-370.074l-13.722-62.464h147.251c0 0 67.277 8.806 69.53-45.056 0-93.286-154.214-85.402-154.214-85.402l28.774 97.382h-95.539l-43.827-157.901h173.158c0 0 183.091 16.179 183.091 143.974 0 0 7.373 37.274 4.301 53.658l89.19-238.592 222.925 231.322h169.062c0 0 51.814-4.403 51.814-44.442 0-93.286-153.088-83.558-153.088-83.558l23.654 95.539h-83.558l-47.718-157.901h159.13c0 0 198.963 12.288 198.963 147.866 0 0-3.994 107.52-139.264 107.52z" />
<glyph unicode="&#xe902;" glyph-name="e902" data-tags="" d="M633.446 680.346c0.512-0.41 1.331-2.048 3.686-4.403l108.032-108.032c2.048-2.048 3.584-3.072 4.506-3.482 0.307 0.922 0.717 2.662 0.717 5.632v92.058c0 10.547-8.602 19.046-19.149 19.046h-92.058c-3.174 0-4.915-0.512-5.734-0.819zM278.118-25.498c5.018-16.282 20.070-28.262 37.99-28.262h31.846c17.715 0 32.563 11.571 37.786 27.546h256.41c5.222-15.974 20.070-27.546 37.786-27.546h31.846c18.125 0 33.28 12.083 38.093 28.672 40.653 5.222 72.192 39.526 72.192 81.613v810.496c0 45.67-37.069 82.739-82.739 82.739h-454.758c-45.67 0-82.739-37.069-82.739-82.739v-810.496c0-43.52 33.69-78.746 76.288-82.022zM766.976 662.118v-92.058c0-16.589-8.909-22.426-16.486-22.426-5.632 0-11.366 2.867-16.998 8.602l-108.032 108.032c-10.342 10.342-9.114 18.637-7.475 22.733 1.638 3.994 6.656 10.752 21.299 10.752h92.058c19.661 0 35.635-15.974 35.635-35.635zM377.549 763.699v132.198h268.8v-136.294h-268.8v4.096zM257.024 662.118c0 19.661 15.974 35.635 35.635 35.635h92.058c14.643 0 19.661-6.758 21.299-10.752 1.741-3.994 2.97-12.288-7.475-22.733l-108.134-108.032c-5.734-5.734-11.366-8.602-16.998-8.602-7.578 0-16.486 5.837-16.486 22.426l0.102 92.058zM512 602.112c153.805 0 278.426-124.621 278.426-278.426s-124.621-278.426-278.426-278.426c-153.805 0-278.426 124.723-278.426 278.426s124.621 278.426 278.426 278.426zM637.645 887.706h-251.29l61.542-28.877v-62.054l-61.542-28.979h251.29l-61.542 28.979v62.054zM278.733 567.91l108.032 108.032c2.355 2.355 3.277 3.994 3.584 4.71-0.41 0-2.458 0.512-5.734 0.512h-92.058c-10.547 0-19.149-8.602-19.149-19.046v-92.058c0-2.97 0.41-4.71 0.717-5.632 1.024 0.41 2.56 1.331 4.608 3.482zM512 78.336c135.27 0 245.35 110.080 245.35 245.35s-110.080 245.35-245.35 245.35c-135.27 0-245.35-110.080-245.35-245.35s110.080-245.35 245.35-245.35zM512 545.894c122.573 0 222.208-99.635 222.208-222.208s-99.738-222.208-222.208-222.208c-122.573 0-222.208 99.738-222.208 222.208 0 122.573 99.635 222.208 222.208 222.208zM512 118.067c113.357 0 205.722 92.262 205.722 205.722s-92.262 205.722-205.722 205.722c-113.459 0-205.722-92.262-205.722-205.722s92.365-205.722 205.722-205.722zM512 412.16c48.845 0 88.474-39.731 88.474-88.474s-39.731-88.576-88.474-88.576-88.474 39.731-88.474 88.576 39.629 88.474 88.474 88.474zM512 268.288c30.515 0 55.398 24.883 55.398 55.398s-24.883 55.398-55.398 55.398c-30.618 0-55.398-24.883-55.398-55.398s24.781-55.398 55.398-55.398z" />
<glyph unicode="&#xe903;" glyph-name="e903" data-tags="" d="M992.154 759.91c-21.094 121.446-48.333 146.33-168.96 167.424-168.653 29.491-455.578 30.003-623.104 0.819-121.446-21.094-146.33-48.333-167.424-168.858-29.491-168.653-30.003-455.578-0.922-623.104 21.094-121.549 48.23-146.432 168.96-167.526 168.653-29.491 455.578-30.003 623.206-0.922 121.549 21.094 146.432 48.23 167.526 168.96 29.389 168.653 29.901 455.578 0.717 623.206zM355.226 819.302c17.818-0.102 34.611-4.813 48.947-13.107 105.574-60.928 111.514-60.928 216.576-0.41 14.438 8.397 31.13 13.21 49.050 13.107 54.272-0.102 98.304-44.134 98.202-98.406-0.102-54.374-44.237-98.304-98.509-98.304-17.92 0-34.714 4.915-49.152 13.312-104.755 60.928-111.514 60.826-216.166 0.41-14.438-8.397-31.334-13.21-49.254-13.107-54.272 0.102-98.202 44.134-98.202 98.406 0.102 54.272 44.237 98.202 98.509 98.099zM826.368 349.594c-18.022 0-34.816 5.018-49.357 13.517-113.562 65.946-170.496 55.808-234.803 24.064-64.922-31.949-118.374-123.904-128-155.955-2.15-7.066-4.71-12.8 9.011-13.824 71.27 0.102 136.806 16.077 209.306 44.749 69.12 27.238 132.71-19.149 151.45-82.534 16.077-54.067-22.016-107.11-85.606-102.502-42.598 3.072-70.554 39.936-80.998 65.126-13.312 32.154-5.939 42.701-18.944 36.352-49.357-24.064-127.488-69.222-220.16-94.515-11.264-3.072-25.6-6.144-36.659-6.042-54.272 0.102-98.202 44.134-98.099 98.509 0 27.955 11.878 53.043 30.618 70.963 47.411 45.363 103.629 89.395 127.283 118.886 16.282 20.275 22.733 27.955 16.282 33.075-20.378 16.077-71.475 22.221-171.315-35.533-14.541-8.397-31.334-13.312-49.254-13.21-54.272 0.102-98.202 44.237-98.099 98.509 0 54.272 44.134 98.202 98.406 98.099 17.818 0 34.611-4.813 49.050-13.21 106.803-61.645 139.264-51.507 231.424-14.95 2.97 1.434 10.035 3.994 13.312 4.915 6.554 2.048 13.517 3.072 20.787 3.072 7.578 0 14.746-1.229 21.606-3.482 2.97-0.922 9.728-3.379 12.493-4.71 86.528-35.226 127.283-45.773 231.731 14.336 14.336 8.294 31.027 13.005 48.845 12.902 54.374-0.102 98.304-44.134 98.202-98.406-0.102-54.374-44.134-98.304-98.509-98.202z" />
<glyph unicode="&#xe904;" glyph-name="e904" data-tags="" d="M907.674 616.243c-23.142 49.562-13.21 70.963-67.686 69.325 0 0-132.096 232.858-305.562 234.496-173.466 1.741-227.942-161.792-269.21-183.296-41.267-21.402-50.893-113.152-50.893-113.152v0c-29.184-15.667-94.003-54.682-114.278-101.581-26.419-61.030-104.038-122.163-87.552-214.63s18.125-85.914 9.933-138.65c-8.294-52.838 8.294-123.904 107.315-150.323 99.123-26.419 369.971-47.923 482.202-41.267 112.333 6.554 379.802-28.058 389.734 100.762s28.058 246.067-18.125 303.923c-46.182 57.651-52.838 184.832-75.878 234.394zM720.794 545.485c-39.526-107.52-237.978-114.381-246.374-114.688-0.102 0-0.205 0-0.307 0-4.71 0-8.499 3.686-8.704 8.397-0.102 4.813 3.584 8.806 8.397 9.011 1.843 0.102 165.786 7.373 226.509 81.92-41.062-30.106-108.646-54.989-189.030-41.062-88.883 15.36-175.821 65.946-229.274 102.502l11.776 18.739c29.389-19.456 153.19-98.509 229.888-103.117 96.973-5.837 173.056 31.949 196.301 45.056 1.126-2.15 1.638-4.403 0.819-6.758zM785.408 683.93c0 0-13.21-57.856-37.99-100.762 0 0-9.114-11.571-25.702-26.624-201.114-0.819-367.718 60.826-412.979 79.258 7.27 16.794 8.704 35.942 2.662 46.49-2.355 4.198-4.608 8.192-6.554 11.571-3.686 6.349 1.434 27.341 13.107 45.875 35.226 55.91 114.688 159.539 216.371 152.269 185.651-13.21 251.085-208.077 251.085-208.077l2.458 0.102c-2.458-0.102-2.458-0.102-2.458-0.102z" />
<glyph unicode="&#xe905;" glyph-name="e905" data-tags="" d="M895.283 588.8c0 35.226-28.57 65.741-63.898 65.741h-63.898v42.394c-1.331 139.981-115.2 252.826-255.488 252.826s-254.259-112.742-255.488-252.723v0-42.394h-63.898c-35.226 0-63.898-30.413-63.898-65.741l-63.795-579.277c0-35.226 28.57-63.386 63.898-63.386h766.464c35.328 0 63.898 28.16 63.898 63.386l-63.898 579.174zM320.41 688.64h0.205c-0.102 4.71-0.205 3.686-0.205 5.837 0 105.882 85.811 191.386 191.59 191.386s191.59-85.402 191.59-191.181c0-2.15-0.102-1.229-0.205-5.939h0.205v-34.099h-383.181v33.997zM290.406 529.51c-28.262 0-51.098 22.835-51.098 51.098 0 15.258 6.656 28.877 17.203 38.298v-30.515c0-17.613 14.336-31.949 31.949-31.949s31.949 14.336 31.949 31.949v33.587c12.8-9.318 21.094-24.371 21.094-41.37 0-28.262-22.938-51.098-51.098-51.098zM737.485 523.162c-28.262 0-51.098 22.835-51.098 51.098 0 15.258 6.656 28.877 17.203 38.298v-24.064c0.102-17.51 14.336-31.744 31.949-31.744s31.846 14.234 31.949 31.744v0 27.136c12.8-9.318 21.094-24.371 21.094-41.37 0-28.262-22.938-51.098-51.098-51.098z" />
<glyph unicode="&#xe906;" glyph-name="e906" data-tags="" d="M374.589 930.304c-171.049-5.878-313.272-45.701-353.29-98.662-10.394-13.732-12.749-23.542-10.004-41.974 1.372-8.438 24.32-175.37 51.395-371.139 26.87-195.768 50.022-359.557 51.395-363.878 5.294-17.070 32.174-37.079 70.031-51.978 88.074-34.918 244.808-47.278 382.71-30.208 66.888 8.243 128.481 25.498 162.816 45.906 13.926 8.243 30.208 24.125 33.546 32.758 1.178 2.939 4.516 31.386 7.649 63.16l5.888 57.866 10.394 10.793c26.675 27.658 72.776 82.391 102.789 121.815 50.217 66.294 80.23 116.111 101.612 168.294 50.606 124.754 14.705 210.084-106.127 252.068-10.598 3.727-26.481 8.243-35.113 10.199-8.632 1.966-16.282 4.116-17.070 4.71-0.584 0.594 0 12.749 1.567 26.675 4.71 45.507 3.338 52.961-14.316 71.793-56.689 60.621-242.258 98.867-445.87 91.802zM486.4 879.503c63.56-3.922 113.971-11.377 161.833-23.542 80.036-20.398 125.932-49.428 129.853-81.992 5.683-48.845-92.785-92.785-244.613-109.455-39.035-4.116-135.547-5.683-178.504-2.939-169.093 11.366-284.631 55.511-285.020 109.056-0.389 46.295 92.785 87.88 233.042 103.967 58.061 6.666 126.126 8.438 183.409 4.905zM846.356 660.582c41.984-16.865 71.793-48.251 79.247-82.78 5.294-25.108 1.761-59.044-9.81-92.201-7.066-20.204-30.403-68.465-45.906-94.546-15.698-26.092-75.715-116.132-76.892-114.954-0.973 0.993 30.607 384.481 31.98 389.192 0.788 2.949 3.533 2.355 21.381-4.71z" />
<glyph unicode="&#xe907;" glyph-name="e907" data-tags="" d="M588.288-44.032c185.651 23.142 338.842 152.678 398.336 326.656l0.512-0.307c47.514 139.059 32.358 299.213-52.941 433.152-93.389 146.432-249.958 226.918-409.395 227.123-17.51 0-78.541 1.126-133.734-13.107 18.432 1.946 67.994 3.482 101.069 3.174 194.97-3.584 359.629-129.536 423.629-305.459 19.046-43.622 29.696-91.853 29.696-142.746 0-10.752-0.614-21.504-1.536-32.051 0-1.024 0-2.048 0-3.072l-0.307 0.102c-13.107-137.114-103.731-251.187-227.021-297.062-1.024-0.41-2.355-0.819-3.584-1.229-3.482-1.229-6.963-2.355-10.547-3.584-3.379-1.126-6.656-2.15-10.138-3.072-1.331-0.41-2.458-0.717-3.686-1.024-24.371-6.861-49.766-11.162-75.878-12.39-26.112-1.741-52.531-0.41-79.258 4.403-24.064 4.301-47.002 11.366-68.71 20.685-134.042 54.579-225.587 190.464-218.522 344.986 4.506 99.84 49.664 188.109 118.374 249.344 0.819 1.434-1.331 1.331-1.946 1.331-3.994-0.307-7.885-1.638-13.926-3.379-10.035-3.891-19.046-7.066-28.672-12.083-2.253-1.126-4.608-2.56-6.758-3.891-2.048-1.024-3.994-2.15-5.837-3.277-46.182-27.238-86.528-63.283-118.784-105.882-0.819-1.126-1.843-2.253-2.56-3.482-2.048-2.662-4.096-5.427-6.042-8.294-1.741-2.355-3.482-4.915-4.915-7.373-1.024-1.434-2.048-2.867-2.97-4.301-2.355-3.686-4.608-7.373-6.963-11.162-0.205-0.205-0.307-0.41-0.41-0.614-31.642-52.429-51.917-112.23-58.266-175.616 0-0.41-0.102-0.614-0.102-0.922-0.307-3.379-0.512-6.758-0.717-10.035-0.205-3.174-0.41-6.349-0.614-9.626 0-1.126 0-2.15 0-3.174-0.307-5.222-0.41-10.547-0.41-15.77l-0.102 0.102c-0.102-8.602 0.102-17.203 0.512-25.907 7.987-152.474 97.997-281.088 225.075-347.853 80.486-36.454 169.984-52.634 258.048-43.315v0zM621.978 751.923c-0.102 0-0.102 0 0 0h-0.205c-79.462 17.101-157.696-34.304-174.899-114.893-17.101-80.589 33.485-159.949 113.050-177.459l-0.102-0.205c0.102 0 0.307 0 0.41 0 79.872-17.408 130.765-97.075 113.664-178.074-14.643-68.608-73.318-116.122-139.571-118.374-0.41-0.922-0.205-1.843 0.205-2.867 146.534-12.698 282.829 86.426 314.368 235.827 34.509 161.894-67.174 321.229-226.918 356.045zM222.106 766.874v0c-49.357-20.275-79.053-56.934-108.032-92.467-28.672-35.021-57.958-70.451-103.834-84.685 20.582-6.144 44.851-9.523 69.222-3.584 24.269 5.837 46.797 21.197 68.608 46.797 53.043 63.181 123.29 107.827 203.264 132.71-27.238 17.51-68.096 26.317-129.229 1.229z" />
<glyph unicode="&#xe908;" glyph-name="e908" data-tags="" d="M993.894 311.296l4.506 16.794 3.994 16.896 3.379 17.101 2.765 16.896 1.229 8.602 0.922 8.909 1.843 17.203 0.307 8.909 0.614 8.909v8.909l0.307 8.909-0.307 12.8-0.307 12.595-1.843 25.19-1.229 12.595-1.536 12.186-1.843 12.288-2.458 11.878-2.458 11.981-2.765 11.981-2.765 11.674-3.379 11.674-3.686 11.366-3.994 11.366-4.301 11.366-4.301 11.059-4.813 10.445-4.915 11.059-11.059 21.504-5.837 10.445-6.144 10.445-6.758 10.445-6.758 10.138-7.066 10.138-7.373 9.83-7.68 9.83-7.68 9.523-8.294 9.83-8.499 9.216-8.602 9.523-9.216 9.114-9.216 8.909-9.523 8.909-9.421 8.294-9.523 8.294-9.83 7.987-9.728 7.68-10.138 7.373-10.138 7.066-10.138 6.656-10.445 6.451-10.445 6.144-10.65 6.144-10.752 5.53-10.752 5.222-10.957 5.222-11.059 4.608-11.366 4.608-10.854 3.686-22.528 7.373-11.776 3.379-11.674 3.072-11.878 2.765-11.878 2.355-11.878 2.15-12.288 1.843-24.474 3.072-12.595 0.922-25.088 1.229h-25.702l-25.805-1.229-12.595-0.922-24.474-3.072-12.186-1.843-12.288-2.15-11.878-2.458-11.981-2.765-11.674-3.072-11.674-3.379-11.264-3.686-11.366-3.584-11.264-4.301-10.957-4.608-11.059-4.608-10.957-5.222-10.752-5.222-10.752-5.53-20.89-12.288-10.342-6.451-10.138-6.656-10.138-7.066-9.83-7.373-9.83-7.68-9.83-7.987-9.83-8.294-9.216-8.294-9.523-8.909-9.216-8.909-9.216-9.114-8.602-9.523-8.602-9.216-8.294-9.83-7.885-9.523-14.746-19.661-14.131-20.275-6.451-10.445-6.144-10.445-5.837-10.445-5.837-10.752-5.222-10.752-4.301-10.445-4.915-10.957-4.608-11.059-7.987-22.733-3.686-11.366-3.379-11.674-3.072-11.674-2.765-11.981-2.355-11.776-2.15-11.878-1.843-12.288-1.536-12.186-2.458-25.19-0.614-12.595-0.307-12.595-0.307-12.8 0.307-12.902 0.307-12.8 0.614-12.595 2.458-25.19 1.536-12.186 1.843-12.288 2.15-11.981 2.458-11.878 2.765-11.981 3.072-11.981 3.379-11.674 3.686-11.366 3.994-11.674 3.994-11.059 4.608-11.366 9.83-22.118 5.222-10.752 11.674-21.504 6.144-10.445 6.451-10.445 7.066-10.445 7.066-10.035 7.373-9.83 7.373-10.138 7.885-9.523 8.294-9.83 8.602-9.523 8.602-9.421 9.216-9.216 9.216-8.909 9.523-8.909 9.216-8.602 19.661-15.974 9.83-7.68 9.83-7.373 10.138-7.066 10.138-6.758 10.342-6.451 20.89-12.288 21.504-11.059 10.957-4.915 11.059-4.915 10.957-4.301 11.366-4.301 11.366-3.994 11.264-3.379 11.674-3.379 11.674-3.072 11.981-2.765 11.878-2.458 12.288-2.15 24.474-3.686 12.186-1.229 12.595-0.922 25.805-1.229h11.981l18.022 0.307 17.715 0.614 17.51 1.536 17.408 1.843 17.101 2.458 16.589 3.072 16.794 3.584 16.179 3.994 15.872 4.915 15.872 5.222 15.667 5.837 15.258 6.144 14.95 7.066 15.053 7.373 14.643 7.987 14.336 8.294 9.83 6.144 9.523 6.144 9.216 6.144 8.499 6.451 8.602 6.144 7.987 6.451 7.68 6.451 7.373 6.451 6.656 6.758 6.758 6.451 6.144 6.758 5.837 6.758 5.53 6.963 5.222 6.758 9.216 14.131 3.994 7.066 3.686 7.066 3.379 6.963 3.072 7.373 2.765 7.373 4.301 14.746 1.536 7.68 1.229 7.27 0.922 7.68 0.614 15.36-0.205 8.704-0.307 7.68-0.922 7.987-1.229 7.987-1.536 6.451-1.536 6.758-1.843 6.144-1.843 6.451-2.458 6.144-2.458 5.734-2.765 5.837-3.072 5.837-6.758 11.059-3.994 5.53-3.994 5.222-4.301 4.915-4.301 4.813-9.83 9.83-5.222 4.608-5.53 4.301-5.837 4.301-5.837 4.198-6.144 3.994-6.451 3.994-6.758 3.686-7.066 3.994-7.066 3.379-7.373 3.379-7.68 3.379-7.987 3.072-8.192 3.072-8.294 3.072-8.602 2.765-8.909 2.765-22.938 7.987 7.373 4.301 7.066 4.608 6.758 4.506 6.144 4.915 5.837 5.222 5.53 5.222 4.915 5.53 4.608 5.837 4.301 5.837 3.686 6.144 3.686 6.451 2.765 6.451 2.765 6.758 2.15 6.758 1.536 7.066 1.536 7.373 0.614 8.499 0.307 7.987-0.307 8.294-0.614 8.294-1.536 7.987-2.15 7.987-2.458 7.68-3.072 7.987-3.482 7.066-4.301 7.68-4.915 7.68-5.53 7.373-6.144 7.373-6.758 7.373-7.373 7.066-7.68 7.066-8.602 7.373-8.499 7.066-8.909 6.451-9.216 6.144-9.523 5.837-9.728 5.53-10.138 4.915-10.445 4.915-10.752 4.301-11.059 4.301-11.366 3.584-11.674 3.379-11.878 3.072-12.288 3.072-12.595 2.458-12.902 2.15-14.643 2.15-14.643 1.843-15.258 1.536-31.027 2.458-15.872 0.922-15.974 0.614-32.973 0.614-16.896-0.307h-17.101l-17.408-0.614-53.862-2.765-18.33-1.536v-158.31l29.389 3.686 14.643 1.229 15.053 1.229 14.643 0.922 14.95 0.614 14.95 0.307h30.31l30.31-1.229 30.618-2.458 15.36-1.536 31.334-3.686 12.595-2.15 11.981-2.458 10.957-2.765 10.445-2.765 9.523-3.379 8.909-3.379 8.294-3.686 7.373-3.994 3.379-1.843 3.072-2.15 3.072-2.458 2.765-2.15 2.765-2.355 2.15-2.458 2.458-2.458 1.843-2.458 3.686-5.53 1.536-2.765 1.229-3.072 0.922-2.765 0.922-3.072 0.614-3.072 0.614-3.379v-5.53l-0.614-2.765-0.614-3.072-2.458-6.758-3.379-7.68-2.15-3.072-2.458-3.072-2.765-2.765-6.758-4.301-3.686-1.843-3.994-1.536-4.301-1.229-4.608-0.922-5.222-0.922-5.222-0.307h-11.674l-6.144 0.307-6.451 0.922-7.066 0.922-18.432 2.15-18.022 1.843-18.022 1.536-17.818 1.331-17.408 0.922-17.408 0.614-34.509 0.614-33.587-0.614-16.794-0.614-16.589-0.922-16.179-1.331-16.179-1.536-15.974-1.843-15.872-2.15v-161.382l22.323 2.458 21.709 2.458 21.402 1.843 21.402 1.536 40.96 1.843 19.866 0.307h19.558l38.298-1.229 18.534-1.331 18.125-1.843 17.715-1.843 17.408-2.458 16.794-2.765 16.589-3.072 13.107-2.458 12.288-3.072 11.674-3.072 10.752-3.379 10.138-3.994 9.216-3.994 4.301-2.15 7.987-4.301 3.686-2.458 6.758-4.915 3.072-2.765 2.765-2.458 2.765-2.765 2.458-2.765 2.15-2.765 2.15-3.072 1.843-3.072 3.072-6.144 0.922-3.379 1.229-3.072 1.229-6.758 0.614-3.686v-2.765l0.307-3.072-0.307-3.072v-2.765l-0.614-3.072-0.614-2.765-0.922-3.072-0.922-2.765-1.229-3.072-1.536-2.765-1.536-3.072-1.843-3.072-3.994-6.144-4.915-6.144-3.072-3.686-3.584-3.379-3.686-3.379-7.987-6.144-4.301-3.072-4.301-2.765-4.608-2.765-4.506-2.765-4.915-2.458-5.222-2.458-5.222-2.355-5.53-2.15-5.837-2.15-5.734-1.843-12.288-3.686-6.656-1.126-6.451-1.536-7.066-1.229-14.131-2.355-14.643-2.15-15.667-1.536-16.486-1.229-17.101-0.614h-27.546l-9.523 0.307-19.046 1.229-9.216 0.922-9.216 1.229-8.909 1.229-9.216 1.536-8.909 1.843-8.909 2.15-8.602 2.15-17.203 4.915-8.499 3.072-16.589 6.144-16.589 7.373-7.987 3.686-7.987 4.301-7.68 4.301-15.36 9.216-7.68 4.915-7.373 5.222-7.373 5.53-7.27 5.53-6.861 5.53-14.131 12.288-6.758 6.451-7.066 6.656-6.451 6.758-6.451 7.066-6.451 6.963-6.144 7.066-5.837 7.066-11.059 14.746-5.222 7.373-4.915 7.68-4.915 7.373-4.608 7.987-4.301 7.68-7.987 15.974-3.686 7.987-3.686 8.294-3.379 7.987-3.072 8.499-2.765 8.294-2.765 8.499-2.458 8.602-2.15 8.602-2.15 8.909-1.843 8.909-1.536 8.909-1.536 9.216-0.922 9.114-1.229 9.216-0.614 9.216-0.614 9.523-0.307 9.421v19.046l0.307 9.421 0.614 9.523 0.614 9.216 1.229 9.216 0.922 9.114 1.536 8.909 1.536 9.216 1.843 8.499 2.15 8.909 2.15 8.602 2.458 8.909 2.765 8.294 2.765 8.602 3.072 8.294 3.379 8.192 3.686 8.294 3.686 7.987 7.987 15.974 4.301 7.987 4.608 7.68 4.915 7.68 4.915 7.373 5.222 7.68 11.059 14.746 5.837 7.066 6.144 7.066 12.902 14.131 6.451 6.758 7.066 6.758 7.066 6.451 14.131 12.288 7.373 5.837 7.27 5.53 7.373 5.53 7.373 5.222 7.68 4.915 7.68 4.813 7.68 4.608 15.974 8.602 7.987 3.994 7.987 3.686 16.589 6.758 8.294 3.072 8.499 3.072 8.294 2.458 8.909 2.458 8.602 2.458 17.818 3.686 17.818 3.072 9.216 1.229 9.523 0.922 9.216 0.614 9.523 0.614 19.046 0.614 18.944-0.614 9.523-0.614 9.216-0.614 9.216-0.922 9.216-1.229 17.818-3.072 17.818-3.686 17.203-4.915 8.499-2.458 8.294-3.072 8.499-3.072 7.987-3.379 8.294-3.379 7.987-3.686 7.987-3.994 7.987-4.301 7.68-4.301 7.987-4.608 7.373-4.813 7.68-4.915 7.27-5.222 7.373-5.53 7.066-5.53 7.373-5.837 7.066-6.144 6.758-6.144 7.066-6.451 6.758-6.758 12.902-13.517 6.451-7.066 6.144-7.066 5.837-7.066 5.53-7.373 5.53-7.27 5.222-7.373 4.915-7.68 9.216-15.36 4.608-7.987 3.994-7.68 3.994-8.294 3.686-7.987 3.686-8.294 3.379-8.294 3.072-8.294 5.53-17.203 2.458-8.602 2.15-8.499 2.15-8.909 1.843-8.909 1.536-8.909 1.229-9.216 1.229-9.114 1.843-18.432 0.614-9.523 0.307-9.421v-9.523l-1.843-40.448 7.987-4.915 7.987-4.608 7.987-5.222 7.68-5.222 22.118-16.589 7.066-6.144 7.066-6.042 7.066-6.144 6.451-6.451 6.758-6.451 6.451-7.066 6.144-6.758 6.144-7.373 4.301-7.373z" />
<glyph unicode="&#xe909;" glyph-name="e909" data-tags="" d="M484.311 947.21c-18.913-3.533-46.152-18.657-61.286-33.792-14.121-14.121-29.512-40.356-34.294-58.255l-2.775-10.086-41.103-4.291c-46.909-4.792-101.13-14.121-125.85-21.944-22.702-6.81-47.155-23.45-54.477-36.823-7.823-14.623-15.636-46.909-15.636-65.065 0.256-108.196 111.718-197.222 281.201-225.208 38.083-6.052 124.836-6.308 163.676 0 147.282 23.45 252.959 95.078 276.664 187.884 8.325 33.29 4.792 69.356-9.83 98.857-8.325 16.896-29.757 32.532-55.48 40.356-24.719 7.813-78.94 17.152-125.85 21.944l-41.103 4.291-2.775 10.086c-1.516 5.806-6.81 18.156-11.602 27.494-26.245 49.92-81.981 75.643-139.479 64.553zM548.116 898.529c15.135-7.311 33.792-25.723 41.615-40.858l5.048-9.83h-165.437l3.779 7.567c5.55 11.090 19.927 27.996 30.013 35.809 22.938 17.408 58.501 20.429 84.982 7.311zM542.822 607.754c34.55-10.588 38.84-40.602 8.325-56.238-16.394-8.325-49.94-10.342-69.1-3.779-34.806 11.602-40.1 40.858-9.83 56.238 19.917 10.332 45.885 11.592 70.605 3.779zM200.847 548.485c-0.758-3.277-15.135-128.87-31.775-279.429-33.792-301.875-33.034-285.993-16.896-304.404 4.291-5.048 12.605-11.090 18.156-13.619 9.585-4.547 26.225-4.792 341.729-4.792 315.494 0 332.145 0.256 341.729 4.792 5.55 2.519 13.875 8.571 18.156 13.619 15.892 18.156 16.896 2.519-16.896 304.148-16.64 150.559-31.017 276.408-31.775 279.685-1.014 5.55-1.516 5.55-14.377-5.294-51.958-43.889-118.036-69.356-214.876-82.975-29.512-4.291-133.919-4.035-163.932 0-96.338 13.363-162.918 39.086-214.876 82.975-12.861 10.588-13.363 10.844-14.367 5.294zM756.685 344.463c5.55-3.533 9.083-17.91 42.117-168.97 19.671-90.798 36.065-166.451 36.065-168.223 0.256-9.585-35.564-25.979-40.1-18.668-1.004 1.516-14.623 74.394-30.515 162.161-27.494 151.572-29.256 159.386-35.052 163.43-5.796 3.533-27.238 4.035-217.139 4.035-190.413 0-211.343-0.502-217.139-4.035-5.796-4.035-7.567-11.602-34.806-162.662-15.892-87.265-29.266-160.143-30.024-161.915-2.519-6.81-27.238 1.26-36.823 11.858-4.792 5.294-4.291 7.311 31.273 169.728 25.477 117.268 37.069 165.949 40.356 169.472 2.519 2.519 8.325 5.55 12.861 6.554 4.792 1.26 112.978 1.761 240.845 1.761 207.063-0.492 232.786-1.004 238.080-4.526z" />
<glyph unicode="&#xe90a;" glyph-name="e90a" data-tags="" d="M489.205 663.3l-59.57 34.504c-21.471 12.53-49.033 5.282-61.563-16.189-0.123-0.213-0.246-0.426-0.367-0.641l-248.475-441.389c-12.359-21.679-4.95-49.269 16.606-61.841l59.66-34.683c6.755-3.955 14.433-6.058 22.262-6.1 16.295 0.029 31.327 8.776 39.402 22.929l248.519 441.612c12.275 21.646 4.948 49.133-16.472 61.797zM170.606 109.983v0l-59.704 34.637c-10.806 6.818-24.359 7.609-35.885 2.093-11.359-6.033-18.847-17.453-19.857-30.275l-10.328-90.868c-2.678-13.229 3.053-26.744 14.425-34.015 4.6-2.755 9.865-4.201 15.226-4.184 7.722 0.207 15.193 2.769 21.414 7.346l76.977 53.025c16.867 10.124 22.333 32.001 12.209 48.868-3.46 5.764-8.479 10.431-14.479 13.461v-0.088zM842.038 146.757c20.097 8.254 36.106 24.136 44.521 44.166 5 14.131 3.635 29.735-3.74 42.785-2.003 3.696-8.237 15.627-17.808 33.748-360.67 692.358-382.263 680.825-409.511 666.98-10.216-5.551-16.149-16.648-15.093-28.226 0-77.201 290.060-737.858 333.913-760.075 10.249-5.578 21.681-8.63 33.347-8.905 10.374 0.349 20.544 2.978 29.785 7.703l4.585 1.824zM938.251 131.264c-25.167 14.175-56.342 12.077-79.382-5.343-1.851-1.177-3.581-2.534-5.165-4.051-27.164-22.675-30.803-63.074-8.129-90.238 0.53-0.637 1.075-1.263 1.63-1.876 16.714-20.602 38.93-36.040 64.067-44.521 8.216-3.072 16.082-7.012 23.464-11.754 2.89-9.325 11.518-15.679 21.281-15.671h2.271c10.547 1.075 18.874 9.437 19.901 19.991 1.955 19.897 9.168 121.674-39.938 153.462zM531.9 524.125c-6.561 11.002-20.799 14.605-31.801 8.045-3.308-1.972-6.073-4.737-8.045-8.045l-89.044-178.086c-5.507-10.992-1.062-24.367 9.93-29.875 3.11-1.557 6.538-2.367 10.017-2.358h178.086c12.294 0 22.262 9.967 22.259 22.262 0 3.462-0.808 6.877-2.358 9.971l-89.044 178.086zM107.921 324.265l111.304 178.086c6.515 10.426 3.347 24.159-7.079 30.676-3.537 2.212-7.626 3.383-11.798 3.383h-178.086c-12.294 0.002-22.262-9.965-22.262-22.259v-178.086c0-12.294 9.967-22.262 22.262-22.262h66.783c7.674 0 14.809 3.955 18.877 10.462zM1001.738 536.413h-178.086c-12.294 0-22.262-9.967-22.259-22.262 0-3.462 0.808-6.877 2.358-9.971l89.044-178.086c3.773-7.532 11.476-12.288 19.901-12.288h89.042c12.294 0 22.262 9.967 22.262 22.262v178.086c0 12.292-9.967 22.259-22.262 22.259z" />
<glyph unicode="&#xe90b;" glyph-name="e90b" data-tags="" d="M438.17 45.568c-69.734 0-131.379 55.91-198.861 123.494-47.309 47.309-91.546 93.901-111.616 142.746-24.371 59.187-10.854 115.098 40.346 166.298l387.584 387.686c50.176 50.176 117.146 77.722 188.518 77.722 72.090 0 139.878-27.955 190.669-78.848 50.483-50.483 78.541-117.862 78.848-189.44 0.307-71.885-27.238-139.264-77.722-189.747l-387.686-387.789c-34.509-34.611-71.578-52.122-110.080-52.122zM744.141 881.766c-54.989 0-106.394-21.197-144.896-59.699l-387.686-387.686c-42.291-42.291-37.274-73.83-26.931-99.123 15.77-38.298 55.501-79.872 98.202-122.573 57.651-57.651 109.158-105.37 155.238-105.37 21.811 0 43.52 11.162 66.458 33.997l387.686 387.686c38.707 38.707 59.904 90.522 59.699 145.818-0.307 55.296-21.811 107.11-60.826 146.125-39.014 39.322-91.238 60.826-146.944 60.826zM881.254 653.21c-0.205 0-0.307 0-0.512 0-8.499 0-15.155 6.349-14.95 14.848 0.307 7.987-0.307 15.462-1.536 23.347-1.331 8.397 4.403 16.077 12.8 17.408 8.397 1.434 16.384-4.506 17.715-12.902 1.638-9.83 2.253-18.842 1.946-28.774-0.307-8.397-7.168-13.926-15.462-13.926zM544.358 656.486c-3.994 0-7.885 1.536-10.957 4.506-6.042 6.042-6.042 15.77 0 21.811l98.816 98.816c60.211 60.211 158.413 59.904 218.931-0.614 6.042-6.042 6.042-15.77 0-21.811s-15.77-6.042-21.811 0c-48.538 48.538-127.181 48.742-175.309 0.614l-98.714-98.816c-3.072-3.072-6.963-4.506-10.957-4.506zM41.062-47.514c-7.885 0-15.77 2.97-21.811 9.011-12.083 12.083-12.083 31.642 0 43.622l193.024 193.024c12.083 12.083 31.642 12.083 43.622 0 12.083-12.083 12.083-31.642 0-43.622l-192.922-193.024c-6.042-6.042-14.029-9.011-21.914-9.011z" />
<glyph unicode="&#xe90c;" glyph-name="e90c" data-tags="" d="M680.038 654.746c50.586 126.669-62.566 147.558-62.566 146.022 35.738 89.395-35.738 148.992-101.274 148.992s-62.566-29.798-62.566-29.798 35.738 7.475 35.738-20.89c0-28.365-32.768-26.829-65.536-59.597s-17.101-28.365-19.354-28.365c68.096 4.506 108.032-65.946 183.194-40.141-74.547-37.274-92.365 21.914-172.851 24.986-10.445 0-70.042 11.571-70.042-102.4 87.142-10.035 125.133-70.042 242.79-56.627-132.608-49.152-298.701 154.214-321.741-68.506 0-47.718 35.738-71.68 35.738-71.68s412.672 0 411.238 0c81.92 35.738 41.677 165.478-32.768 158.003zM514.56-53.76l186.368 527.053h-376.832l190.464-527.053z" />
<glyph unicode="&#xe90d;" glyph-name="e90d" data-tags="" d="M468.859 947.026c-98.55-18.627-171.868-86.292-200.161-184.596l-5.181-18.156-0.707-298.701-0.942-298.936h200.622v-200.397h99.021v200.397h200.632l-0.942 298.936-0.707 298.701-5.181 18.156c-21.463 74.025-65.782 128.492-131.318 161.024-35.83 17.92-64.123 24.986-104.909 26.173-21.699 0.471-37.734-0.236-50.227-2.601zM558.684 843.53c57.047-19.333 98.54-70.728 103.496-128.020l1.413-17.213h-302.479v11.315c0 25.938 16.978 66.959 36.547 89.59 21.217 23.808 57.057 44.554 86.292 49.746 20.736 3.779 55.163 1.423 74.732-5.417z" />
<glyph unicode="&#xe90e;" glyph-name="e90e" data-tags="" d="M430.152 945.777c-40.919-6.666-39.107-4.854-36.68-30.31 2.12-25.467-2.12-63.959-10.609-95.785-6.973-25.764-26.368-69.11-37.888-83.968-6.666-9.093-9.093-10.004-22.733-10.004-37.888 0-99.727-19.702-135.199-43.346-30.31-20.306-59.116-52.142-73.656-82.145-16.374-33.352-22.129-57.907-22.129-92.764 0-23.951 1.516-33.044 9.093-54.569 4.844-14.244 13.947-33.649 20.009-43.049l11.213-17.582h112.763l-13.64 13.947c-16.067 16.374-33.044 47.596-38.502 70.625-5.458 22.733-2.427 53.35 6.666 73.359 15.462 34.253 58.204 64.266 103.977 73.964 70.932 14.848 148.531-9.093 180.664-55.777l10.301-14.858 18.79 19.405c10.609 10.301 27.884 24.852 38.492 31.826 23.040 15.155 23.040 13.947-4.854 43.653-20.613 22.129-53.658 45.466-79.114 56.084-9.697 3.942-17.275 8.182-17.275 9.4 0 0.911 4.547 12.124 10.004 24.248 13.64 29.399 25.764 66.693 30.31 92.457 3.942 20.306 4.25 20.92 13.64 21.821 20.009 2.12 59.105-7.885 88.207-22.436 66.089-32.737 107.612-100.035 97.311-157.932-1.812-10.301-5.765-25.16-9.093-32.737l-5.765-13.64h12.749c6.973 0 21.821-2.12 33.044-4.239 69.11-14.848 111.247-66.089 107.909-131.256-1.208-20.92-3.031-28.191-12.431-46.981-6.062-12.124-17.285-29.399-24.863-37.888l-14.244-16.067h109.138l10.609 12.124c23.040 25.16 36.372 63.355 36.372 103.066 0 70.328-37.284 130.048-100.639 161.874-15.462 7.578-30.915 13.947-33.946 13.947-5.151 0-5.765 2.724-5.765 31.222 0 26.071-1.516 34.857-8.786 56.084-41.83 119.726-203.704 201.574-353.454 178.227zM174.008 338.606c0-13.947 41.226-269.486 45.773-284.948 18.493-59.412 51.231-90.634 107.305-102.461 32.44-6.666 349.512-6.666 382.853 0.297 55.47 11.213 93.061 48.497 108.216 106.404 4.854 17.879 40.919 261.898 40.919 275.548v7.281h-342.528c-188.242 0-342.538-0.901-342.538-2.12zM748.145 235.54c-0.604-3.031-6.062-37.591-11.817-76.687-13.036-85.484-15.155-94.577-24.248-103.066-10.916-10.312-35.768-11.827-195.523-11.52-160.655 0-181.883 1.516-192.492 11.52-9.4 8.786-11.817 20.009-24.248 101.55-5.755 38.502-11.213 72.755-12.124 76.687l-1.516 6.666h231.588c219.156 0 231.588-0.297 230.38-5.151zM419.543 143.698v-48.507h48.497v97.004h-48.497v-48.497zM565.043 143.698v-48.507h51.528v97.004h-51.528v-48.497z" />
<glyph unicode="&#xe90f;" glyph-name="e90f" data-tags="" d="M472.986 948.101c-69.356-9.431-130.929-41.052-178.821-91.3-41.759-44.114-66.765-93.42-78.797-154.993-5.898-30.904-6.134-112.527-0.471-131.164 8.489-27.361 32.553-53.555 58.501-63.928 10.619-4.25 17.695-5.192 37.745-5.192 22.886 0 25.948 0.471 40.817 7.311 29.256 13.916 49.777 40.335 56.617 73.841l3.072 15.34 1.649-12.974c2.12-18.637 15.575-44.114 29.962-57.559 6.605-6.134 19.108-14.623 27.832-18.637 14.623-7.076 17.695-7.547 40.581-7.547s25.948 0.471 40.571 7.547c8.724 4.014 21.228 12.503 27.832 18.637 13.916 12.974 27.361 38.451 29.727 55.91l1.649 12.268 4.485-17.695c11.090-45.292 45.998-75.018 90.583-77.373 53.791-2.826 95.539 31.375 104.98 85.637 3.543 20.756 1.178 89.17-3.779 117.012-11.551 61.553-38.676 112.988-83.497 158.044-44.349 44.349-93.184 70.769-154.757 83.507-22.651 4.721-74.076 6.605-96.481 3.308zM278.129 447.037c0-0.707 43.172-108.995 95.775-240.62 92.713-231.895 96.010-239.677 105.452-247.706 22.18-18.872 54.026-16.046 71.004 6.605 4.485 5.898 194.857 476.764 194.857 481.72 0 0.707-104.98 1.178-233.544 1.178-128.573 0-233.544-0.471-233.544-1.178z" />
<glyph unicode="&#xe910;" glyph-name="e910" data-tags="" d="M245.965 946.473c-11.080-3.697-19.149-11.080-24.924-22.385-4.157-8.305-4.383-16.845-4.383-227.963v-219.197h590.684v215.276c0 142.828-0.922 218.040-2.54 223.805-3 11.305-14.541 24.228-26.307 29.532-8.765 4.157-22.61 4.383-266.496 4.157-212.040 0-258.888-0.461-266.035-3.226zM527.462 841.482c11.54-6.922 13.384-12.227 14.531-44.298l1.157-29.071 24.228 13.609c26.767 15.002 35.297 16.609 47.759 9.001 10.383-6.226 15.227-14.766 15.227-26.767 0-16.609-2.304-18.924-50.985-47.759-4.844-2.765-4.157-3.461 17.992-16.384 23.071-13.384 30.454-20.306 32.993-31.611 2.304-9.226-2.54-21.924-11.305-29.532-12.687-11.305-23.532-10.148-50.76 5.54-12.227 6.922-23.071 12.687-24.228 12.687s-2.079-12.227-2.079-27.453c0-24.453-0.461-27.914-5.304-35.072-2.765-4.157-7.844-9.001-10.844-10.619-8.305-4.383-23.306-3.686-31.375 1.382-11.766 7.148-14.766 16.845-14.766 47.073v26.532l-23.532-13.609c-25.61-14.766-35.297-16.845-48.22-10.148-14.531 7.619-20.306 28.611-11.766 43.151 2.54 4.618 12.227 11.766 27.689 20.992 13.148 7.619 23.071 14.541 21.924 15.462-0.922 0.696-12.001 7.383-24.228 14.766-15.002 8.54-23.767 15.462-26.071 19.845-7.844 15.002-1.618 35.297 12.923 42.916 11.766 6.001 23.992 3.226 48.456-11.305l21.688-12.687 1.157 29.307c1.157 31.375 3 35.994 15.462 44.298 8.274 5.53 23.040 5.53 32.276-0.246zM217.129 195.891l0.696-221.041 6.226-9.462c3.686-5.54 10.148-11.305 16.148-14.305l10.148-4.844h261.417c256.113 0 261.417 0 270.193 4.618 10.844 5.54 19.384 16.384 22.845 28.846 1.618 6.461 2.54 75.684 2.54 223.355v213.893h-590.684l0.471-221.061zM350.259 325.796c11.766-6.001 14.080-15.002 14.080-55.142 0-40.612-2.079-49.613-13.609-55.378-7.844-4.157-22.385-4.844-31.15-1.382-3.226 1.157-8.079 5.54-10.619 9.687-4.157 6.922-4.618 11.766-4.618 46.377 0 42.455 1.618 49.377 13.384 55.603 8.069 4.393 24.218 4.618 32.532 0.236z" />
<glyph unicode="&#xe911;" glyph-name="e911" data-tags="" d="M273.664 946.964c-38.226-8.233-67.43-38.42-73.308-75.469-2.744-17.838-2.744-831.334 0.195-848.783 6.072-38.226 36.659-68.219 76.257-74.486 17.254-2.55 452.813-2.744 470.456 0 18.821 2.939 42.537 15.288 54.098 28.027 11.766 12.933 19.804 29.993 22.344 47.442 2.55 19.016 2.744 830.351 0 847.8-4.311 27.832-24.504 55.276-49.398 67.43-22.743 11.172-18.033 10.977-263.26 10.783-180.347 0-227.789-0.594-237.384-2.744zM752.937 884.429c2.939-1.567 6.267-5.1 7.649-8.038 1.761-3.727 2.345-32.143 2.345-106.834v-101.929h-501.821v102.523c0.195 109.578 0 108.79 9.994 114.278 7.26 4.116 473.989 3.922 481.833 0zM762.931 312.637v-292.27l-11.366-11.366h-478.495l-10.977 9.411-0.584 293.253-0.389 293.253h501.821v-292.28zM341.484 851.497c-6.472-3.328-9.994-6.861-13.332-13.332-4.311-8.622-4.506-9.8-3.922-62.73 0.584-60.375 0.983-62.331 14.705-70.769 14.305-9.021 34.304-4.311 42.732 9.994 3.727 6.472 3.922 9.994 3.922 62.73 0 55.276 0 55.869-4.506 63.314-8.622 13.732-25.088 18.248-39.598 10.793zM344.422 570.604c-9.605-3.328-15.882-10.394-18.627-20.582-1.372-5.1-1.956-60.18-1.567-168.97 0.584-180.347-0.195-168.97 14.705-178.186 14.305-9.011 34.304-4.311 42.732 9.994 3.922 6.666 3.922 9.411 3.922 172.503s0 165.837-3.922 172.503c-7.444 12.339-23.327 17.828-37.243 12.739z" />
<glyph unicode="&#xe912;" glyph-name="e912" data-tags="" d="M284.815 946.545c-4.7-1.761-12.349-6.861-16.855-11.366-15.872-15.677-14.705 6.472-14.705-299.325v-272.077h517.489v272.077c0 305.787 1.178 283.638-14.705 299.325-15.483 15.677 0 14.705-244.828 14.51-191.898-0.010-218.757-0.399-226.396-3.144zM530.432 845.588c7.844-6.861 8.428-15.288 2.15-22.743l-5.294-6.277h-23.327c-22.344 0-23.716 0.195-28.232 4.905-5.489 5.294-6.666 15.677-2.355 20.972 4.7 5.878 10.394 7.25 31.171 7.444 19.016 0.010 21.371-0.379 25.887-4.301zM334.797 596.060c12.544-3.727 22.149-11.766 29.204-24.699l5.878-10.588v-123.689l-5.878-11.766c-7.055-13.527-19.016-22.743-34.304-26.071-15.872-3.328-25.283 2.161-25.487 15.288 0 7.444 6.277 15.872 11.766 15.872 8.233 0 16.271 4.71 18.821 10.977 3.533 8.428 3.922 102.513 0.584 112.323-2.161 6.277-10.189 11.96-17.050 11.96-2.15 0-6.072 1.761-9.011 4.116-8.622 6.861-6.666 21.166 3.727 26.849 5.284 2.949 10.383 2.949 21.75-0.573zM253.256 159.324c0-192.686-0.778-183.081 14.705-198.369 15.483-15.677 0.195-14.705 244.040-14.705s228.557-0.983 244.040 14.705c15.483 15.288 14.705 5.683 14.705 198.369v171.121h-517.489v-171.121zM340.48 292.424c5.489-2.355 12.739-7.844 16.466-11.96 12.933-14.705 12.933-15.094 12.933-83.313s0-68.608-12.933-83.313c-18.627-21.166-52.726-22.149-52.726-1.178 0 10.189 4.506 15.677 14.111 17.050 4.311 0.788 10.189 3.328 13.138 5.878l5.1 4.311v114.483l-5.1 4.311c-2.939 2.55-8.817 5.1-13.138 5.878-9.605 1.372-14.111 6.861-14.111 17.060 0 14.909 16.855 20.009 36.26 10.793z" />
<glyph unicode="&#xe913;" glyph-name="e913" data-tags="" d="M409.836 940.82c-5.56-6.287-44.227-83.384-124.959-248.699-64.051-131.738-117.944-243.395-119.398-248.228-5.796-17.162 2.417-30.7 20.060-34.079 6.523-1.208 18.852 1.69 56.32 14.019 169.421 55.347 291 74.68 359.639 57.037 21.268-5.56 107.069-46.889 133.171-64.051 39.639-26.583 71.782-65.26 83.149-100.547 7.25-21.996 7.731-51.241 1.454-74.68-9.421-34.56-33.833-70.328-60.426-87.982-7.25-4.833-13.773-8.704-14.5-8.704s-1.454 4.352-1.454 9.667c0 7.014 0.963 9.667 3.625 9.667 7.014 0 18.125 7.25 21.75 14.5 4.598 8.94 4.598 22.477 0 31.416-6.769 13.292-12.81 14.5-68.884 14.5h-50.76v62.833h-369.551l-0.727-30.7-0.727-30.935-52.449-1.208c-48.343-1.208-52.931-1.69-59.218-6.277-19.814-14.746-12.329-48.579 11.848-53.412l6.769-1.208v-154.194h-16.916c-29.491 0-43.51-10.148-43.51-31.416 0-12.81 5.56-21.996 16.916-27.791 10.394-5.315 631.306-5.56 644.116-0.246 23.45 9.912 23.45 46.162 0 56.074-4.598 1.935-15.954 3.389-25.375 3.389h-16.916v91.361l16.681 5.079c61.143 18.606 108.524 69.612 131.963 142.838 8.94 27.791 10.875 68.157 4.833 95.713-9.912 44.954-38.666 89.907-80.968 126.167-28.037 23.931-47.37 35.768-109.005 66.222-53.903 26.583-58.255 29.245-75.172 45.916-30.935 30.208-58.491 71.537-90.88 136.315-29.245 58.726-57.528 126.894-77.824 188.283-9.912 29.727-20.306 42.301-35.041 42.301-7.485 0-10.629-1.69-17.633-8.94z" />
<glyph unicode="&#xe914;" glyph-name="e914" data-tags="" d="M995.942 838.042c-9.933 9.933-23.142 16.179-37.069 17.613-25.907 2.662-96.768-38.912-136.806-63.898-57.242-35.738-143.462-96.358-229.069-181.965l-187.392-187.392c-23.859-23.859-23.859-62.669 0-86.528l0.819-0.819-257.126-257.024c-23.859-23.859-23.859-62.669 0-86.528s62.669-23.859 86.528 0l760.013 760.013c16.589 16.589 22.221 41.677 14.336 63.795-2.867 8.499-7.885 16.384-14.234 22.733v0zM659.866 353.075l-86.528-86.528 268.698-268.698c23.859-23.859 62.669-23.859 86.528 0s23.859 62.669 0 86.528l-268.698 268.698zM313.037 528.691l67.174-67.174 85.299 85.299-63.898 63.898c11.776 40.038 1.946 85.197-29.594 116.838-0.307 0.307-0.717 0.512-1.024 0.819s-0.512 0.717-0.819 1.024l-187.085 187.085c-7.885 7.885-20.582 7.885-28.467 0s-7.885-20.582 0-28.467l173.773-173.773c0 0 0.102-0.102 0.102-0.102 4.915-4.915 4.915-12.8 0-17.715s-12.8-4.915-17.715 0c0 0-0.102 0.102-0.102 0.102v0l-173.773 173.773c-7.885 7.885-20.582 7.782-28.467 0-7.885-7.885-7.885-20.582 0-28.467l173.773-173.773c0 0 0.102 0 0.102-0.102 4.915-4.915 4.915-12.8 0-17.715s-12.8-4.915-17.715 0c0 0 0 0.102-0.102 0.102v0l-173.773 173.773c-7.885 7.885-20.582 7.885-28.467 0s-7.885-20.582 0-28.467l173.773-173.773c0 0 0.102-0.102 0.102-0.102 4.915-4.915 4.915-12.8 0-17.715s-12.8-4.915-17.715 0c0 0 0 0.102-0.102 0.102v-0.102l-173.773 173.875c-7.782 7.885-20.582 7.885-28.467 0-7.885-7.782-7.885-20.582 0-28.467l187.187-187.187c0.307-0.307 0.717-0.512 1.024-0.819s0.512-0.717 0.819-1.024c29.286-29.184 70.246-39.731 107.93-31.744zM917.197 95.13l-245.555 245.658-85.299-85.299 245.658-245.658c23.552-23.552 61.747-23.552 85.299 0 23.45 23.45 23.45 61.747-0.102 85.299z" />
<glyph unicode="&#xe915;" glyph-name="e915" data-tags="" d="M381.030 902.758c-51.415-5.304-101.274-20.019-146.012-42.783-200.192-101.868-281.641-344.637-182.723-545.014 53.187-107.94 149.35-186.245 265.144-215.88 34.929-9.032 65.157-12.759 102.84-12.759 37.294 0 67.707 3.727 100.874 12.36l24.73 6.277 1.966 57.692-11.387-3.922c-73.206-25.303-155.433-25.498-229.622-0.768-154.061 51.61-253.768 201.359-241.592 363.069 3.727 49.265 14.52 88.32 37.089 133.458 16.681 33.362 33.956 57.897 59.269 84.388 49.060 51.415 105.984 84.787 172.114 100.874 35.328 8.632 56.125 10.598 98.918 9.421 50.831-1.372 85.176-9.032 132.475-29.245 10.015-4.321 18.452-7.649 18.842-7.26 0.195 0.389 1.567 5.693 2.949 11.581 1.966 8.827 6.277 21.002 13.148 36.506 1.761 4.116-45.138 22.374-79.677 31.201-41.421 10.404-99.901 14.92-139.346 10.803zM626.545 846.623c-21.391-27.085-28.068-166.226-15.114-316.764 7.455-87.532 9.615-131.297 8.243-162.499-1.567-35.523-4.71-52.992-15.698-88.709-20.214-66.529-27.279-106.762-27.474-154.061 0-38.861 3.922-58.685 16.087-83.405 8.049-16.292 27.085-37.089 40.827-44.554l8.049-4.516 11.581 7.66c62.218 40.817 70.062 137.38 23.357 284.764-9.615 30.618-15.503 57.303-17.664 79.872l-1.372 14.326 10.988 10.004c28.846 26.296 50.831 82.821 63.386 162.693 4.71 30.423 4.71 95.386-0.195 128.553-10.199 71.434-29.041 123.638-53.975 150.723-18.248 19.64-42.199 27.3-51.026 15.913zM872.253 849.572l-6.472-1.966v-239.237h-31.396v107.94c0 68.884-0.788 107.94-1.966 107.94-3.922 0-21.985-25.313-31.406-44.155-48.087-96.758-24.73-239.237 47.493-287.519 13.937-9.226 14.909-11.182 22.18-39.844 8.837-35.717 9.615-84.388 1.966-121.876-1.761-8.632-7.26-28.457-12.165-44.155-23.163-74.578-31.007-120.699-29.44-170.936 1.178-37.089 3.922-50.237 15.309-73.994 8.827-17.859 21.002-31.601 37.489-42.783l10.988-7.26 11.182 7.26c16.876 10.598 29.635 25.313 38.267 43.182 11.387 23.747 13.937 36.7 15.114 73.595 1.567 50.237-6.277 96.358-29.44 170.742-4.905 15.698-10.404 35.328-11.971 43.96-8.049 38.267-7.26 86.159 1.761 122.46 7.26 28.457 8.243 30.423 22.18 39.639 31.601 21.197 55.931 62.996 67.318 115.794 3.727 17.275 4.516 26.696 4.516 56.914s-0.788 39.639-4.516 56.914c-5.1 24.34-14.131 49.060-24.136 66.724-8.243 14.52-24.136 35.328-27.085 35.328-1.178 0-1.966-38.267-1.966-107.94v-107.93h-31.396v239.237l-7.26 1.966c-9.032 2.55-36.506 2.55-45.148 0zM374.159 754.381c-81.254-14.326-153.078-68.096-190.566-142.674-9.226-18.258-19.63-49.654-23.357-71.045-4.321-23.941-4.321-65.352 0-90.276 11.387-65.946 48.087-125.604 103.035-167.014 18.842-14.326 52.398-31.601 75.162-38.861 51.026-16.486 109.906-16.876 160.143-0.983 21.586 6.871 53.975 22.374 67.123 31.99 8.049 6.083 9.226 7.854 14.131 23.941 2.744 9.615 5.693 21.002 6.482 25.313 0.584 4.321 1.567 9.421 2.161 11.581 0.584 2.161-4.71-1.178-13.537-9.032-34.15-29.829-68.096-46.909-112.456-56.719-15.892-3.533-66.724-3.533-84.388 0-73.206 14.52-133.059 61.235-165.048 128.748-4.905 10.209-11.182 27.085-14.131 37.683-4.71 17.664-5.1 22.374-5.1 57.498-0.195 33.362 0.389 40.428 4.321 54.753 11.182 42.394 28.846 73.206 59.269 104.407 36.895 37.489 76.739 58.286 127.959 66.529 24.136 3.922 68.69 1.567 92.826-4.71 25.313-6.676 59.075-23.163 80.466-39.444l16.681-12.759v45.138l-12.165 8.049c-27.668 17.859-64.369 32.184-97.536 37.878-22.979 3.942-69.499 3.942-91.474 0.010zM774.523 493.169c0-36.7-0.788-45.926-4.516-65.157-9.226-45.332-27.279-89.692-52.009-127.57l-10.598-16.292 3.338-11.182c1.772-6.083 5.304-19.425 7.854-29.635 2.355-10.209 5.1-19.425 5.888-20.214 1.966-2.161 23.163 24.33 39.639 49.654 31.406 48.087 52.787 104.407 61.235 161.321 5.1 34.15 5.499 32.768-12.37 50.237-12.759 12.564-24.924 28.652-36.506 48.282-1.372 2.355-1.956-9.81-1.956-39.444z" />
<glyph unicode="&#xe916;" glyph-name="e916" data-tags="" d="M512 949.76c-277.094 0-501.76-224.666-501.76-501.76s224.666-501.76 501.76-501.76c277.094 0 501.76 224.666 501.76 501.76s-224.666 501.76-501.76 501.76zM732.57 637.645c6.451-6.349 6.451-16.794 0-23.142l-93.082-92.979c-6.349-6.349-16.794-6.349-23.142 0s-6.349 16.794 0 23.142l93.082 92.979c6.349 6.451 16.794 6.451 23.142 0zM568.934 592.589l92.774 92.774c6.451 6.349 16.794 6.349 23.245 0 6.349-6.349 6.349-16.794 0-23.142l-92.877-92.877c-19.866-19.866-19.866-52.224 0-72.090 9.626-9.626 22.426-14.95 36.147-14.95 13.619 0 26.317 5.325 35.942 14.95l92.877 92.774c6.451 6.349 16.794 6.349 23.142 0 6.349-6.451 6.349-16.794 0-23.142 0 0-92.877-92.774-92.877-92.774-15.77-15.872-36.762-24.576-59.187-24.576-22.323 0-43.52 8.704-59.29 24.576-32.563 32.563-32.563 85.709 0.102 118.477zM327.987 182.067c-14.131-14.131-36.966-14.131-50.995 0-14.234 14.131-14.234 36.966 0 51.098l152.576 152.576 51.098-51.098-152.678-152.576zM776.806 182.067c-14.131-14.131-36.966-14.131-51.098 0l-164.25 164.352c-15.974-15.974-41.984-15.974-57.856 0l-223.744 223.642c-7.987 8.090-12.083 18.637-11.981 29.082v54.17h0.205c-0.41 9.728 2.97 19.661 10.445 27.136 14.131 14.131 36.966 14.131 51.098 0l447.283-447.283c14.131-14.131 14.131-37.069-0.102-51.098z" />
<glyph unicode="&#xe917;" glyph-name="e917" data-tags="" d="M500.992 945.367c-1.249-2.509-1.884-7.107-1.464-10.445 0.829-5.642 0.42-6.062-5.642-6.062-3.553 0-7.526-1.044-8.98-2.509-3.133-3.133-3.348-15.043-0.42-20.685 2.089-3.553 1.464-3.973-6.062-3.973-5.427 0-8.561-1.044-9.4-3.338-2.294-6.062-1.249-18.596 2.089-23.398 3.133-4.383 2.929-4.598-3.758-4.598-3.973 0-8.151-1.044-9.615-2.509-3.348-3.338-3.133-21.729 0.42-33.638l2.929-9.615-7.107-2.294c-7.107-2.294-7.107-2.509-7.107-15.247 0.205-7.311 1.464-15.258 3.133-18.176 4.383-7.526 3.973-8.356-4.178-8.356-7.107 0-7.311-0.205-7.311-8.356 0-9.196 4.383-21.729 9.82-27.576 3.553-3.973 3.973-3.553-6.687-6.892-1.884-0.42-3.133-3.348-3.133-6.892 0-8.98 6.062-27.372 10.445-31.754 3.973-3.973 3.973-3.973-3.133-5.437-6.892-1.249-7.311-1.669-7.311-10.24 0-11.704 5.018-27.576 10.445-33.434l4.598-4.803-6.482-1.464c-3.553-0.84-6.472-2.509-6.472-3.973 0-6.482 6.687-24.023 12.534-32.594l6.267-9.4-4.598-3.553c-4.178-2.929-4.383-4.178-2.294-10.865 2.089-7.107 2.089-7.526-2.304-7.526-4.383 0-4.598 0.625-3.758 11.489 0.42 6.482-0.205 15.882-1.669 20.89-2.509 8.776-3.133 9.4-9.82 9.4s-6.892 0.205-4.598 4.598c1.464 2.714 1.884 9.196 1.26 17.132-1.669 17.756-2.929 20.060-10.24 20.060-5.427 0-6.062 0.42-3.758 3.133 1.884 2.294 2.294 6.687 1.249 14.623-1.874 16.302-4.383 21.934-10.025 21.934-4.383 0-4.803 1.044-5.018 11.069 0 5.847-1.669 14.418-3.553 18.801-3.133 7.311-3.973 7.936-9.615 6.687-5.847-1.249-5.847-1.249-6.892 10.025-1.044 12.534-7.936 27.791-12.329 27.372-1.669-0.205-4.803-0.84-7.107-1.464-3.973-1.249-4.178-0.625-3.553 6.687 0.84 8.571-6.472 26.952-11.284 28.836-1.464 0.42-5.427-0.625-8.98-2.509l-6.472-3.338v6.687c0 7.731-4.393 17.551-12.114 26.952-5.847 6.687-5.847 6.687-12.329 3.553l-6.472-3.348-1.26 7.936c-0.829 5.642-3.338 10.025-8.571 14.623-7.311 6.267-7.731 6.482-13.578 3.338-6.267-3.133-6.267-3.133-6.267 2.294 0 3.348-2.509 7.731-6.687 11.704-5.427 5.018-7.936 6.062-13.578 5.222-5.427-1.044-7.311-0.42-8.98 2.929-1.26 2.294-5.847 6.267-10.445 9.196-4.393 2.714-11.489 10.66-16.087 17.551-13.793 21.729-20.685 15.258-17.132-15.882 2.714-24.863 5.847-40.53 9.4-45.967 2.714-4.178 2.509-4.598-3.338-5.847-3.553-0.84-6.267-2.714-6.267-4.383 0-6.482 7.107-20.060 13.158-24.658l6.267-5.018-6.472-3.348c-3.758-1.884-6.687-5.018-6.687-7.107 0.205-6.062 7.731-20.89 13.373-25.702l5.437-4.803-5.642-4.598-5.847-4.803 4.803-9.196c2.714-5.222 8.151-11.284 12.749-14.213 7.526-4.598 7.731-5.222 4.178-7.731-2.294-1.464-3.973-4.178-3.973-5.847 0-5.018 12.114-21.309 18.176-24.443l5.427-2.929-4.598-3.133c-4.383-3.133-4.598-3.553-1.464-9.615 3.758-7.526 15.667-20.265 20.060-21.729 2.509-0.84 2.294-2.089-1.464-6.267l-4.803-5.018 7.107-10.24c3.973-5.847 10.445-12.329 14.623-14.418 6.892-3.553 7.311-4.383 4.393-7.526-1.669-1.884-3.133-4.393-3.133-5.642 0-2.929 22.774-21.524 26.327-21.524s3.758-2.509 0.625-5.642c-3.758-3.758 2.509-11.704 17.551-22.774 12.954-9.615 16.292-13.373 12.114-13.373-1.249 0-2.294-1.249-2.294-2.509 0-1.669-2.714-2.714-6.482-2.714-4.803 0-7.107 1.249-8.151 4.178-1.669 4.393-16.507 19.845-19.22 19.845-0.84 0-2.089-0.84-2.714-2.089-1.884-3.133-5.222-2.509-5.222 1.044 0 1.884-5.222 8.571-11.489 15.043-11.284 11.489-11.489 11.704-15.667 7.936-3.348-2.929-4.178-3.133-4.178-0.625 0 3.758-13.373 19.64-19.22 22.774-2.929 1.669-4.803 1.464-7.311-0.625-2.929-2.294-3.553-2.294-4.383 0.42-1.26 4.178-19.436 20.89-22.569 20.89-1.249 0-3.553-1.464-5.018-3.338-2.509-2.714-3.348-2.509-6.687 2.929-2.089 3.348-7.936 8.356-13.158 11.069-9.196 4.803-9.4 4.803-12.329 0.84-2.929-3.973-3.133-3.973-7.311 1.464-5.642 7.107-17.971 11.489-22.149 7.936-2.304-1.884-3.973-1.464-7.526 1.884-2.509 2.294-10.865 6.267-18.381 8.776s-20.060 7.731-27.791 11.489c-21.105 10.66-24.658 8.98-16.507-7.107 3.973-7.731 32.174-43.878 36.567-46.807 1.669-1.249 1.464-2.294-0.625-3.553-5.642-3.553 3.553-16.302 17.756-24.443 3.348-2.089 3.553-2.714 1.044-5.642-3.973-5.018 1.884-13.169 12.534-17.971 7.107-3.338 7.731-4.178 5.018-6.482-1.669-1.464-3.133-3.758-3.133-5.222 0-4.178 13.578-15.043 20.48-16.712 5.222-1.044 5.847-2.089 5.018-6.482-1.26-6.687 5.847-14.418 18.596-20.48 8.356-3.973 9.4-5.222 7.731-8.356-3.758-6.687 13.578-20.060 26.327-20.060 5.847 0 6.892-1.884 2.929-5.847-1.669-1.669-1.669-3.133 0.205-5.437 3.348-3.973 20.060-9.615 29.041-9.615 6.062 0 7.107-0.625 6.062-3.973-1.26-5.437 2.714-8.776 19.436-16.712 9.564-4.506 15.206-5.97 19.384-5.13 5.427 1.044 5.642 0.84 4.598-3.973-1.044-4.178-0.215-5.437 4.598-7.311 9.82-4.178 28.211-6.892 35.727-5.437 6.472 1.26 7.107 1.044 5.847-2.929-2.089-6.062 2.714-8.151 30.505-12.954 12.954-2.294 29.665-6.062 37.192-8.356 7.516-2.294 16.507-4.178 19.845-4.178 3.553-0.205 11.909-1.464 18.801-2.929l12.534-2.918-12.534-0.215c-6.892 0-16.712 0.84-21.934 1.884-16.507 3.338-56.412 5.018-56.412 2.509 0-1.669-5.847-2.089-19.845-1.044-19.22 1.249-19.845 1.044-19.845-3.133 0-3.973-0.625-4.178-5.437-2.509-2.929 1.249-10.865 2.089-17.971 2.089-10.66 0-12.749-0.625-13.578-4.178-1.044-3.553-2.929-4.178-14.418-4.178-11.069 0-13.793-0.625-15.882-4.178-1.884-2.714-5.018-4.178-9.605-4.178-4.393 0-8.571-1.669-11.909-5.018-2.714-2.714-7.311-5.427-10.445-6.267-3.133-0.829-6.062-3.338-6.687-5.427-0.625-2.294-2.509-4.178-3.973-4.178-6.687 0-36.352-22.569-36.352-27.576 0-0.829 5.427-1.669 12.114-1.669 24.658 0 46.387-2.509 46.387-5.427 0-3.348 8.571-5.847 14.203-4.178 2.294 0.829 5.018 0 6.687-1.884 2.929-3.553 11.909-4.178 19.845-1.044 4.598 1.669 5.642 1.464 7.731-3.133 1.874-4.178 3.338-4.803 8.776-3.758 3.553 0.625 8.571 2.294 11.080 3.973 3.758 2.304 4.598 2.304 5.642-0.205 1.464-3.973 9.82-3.973 15.043 0s7.107 3.973 7.107 0c0-6.062 19.22-1.884 29.256 6.482l6.267 5.437v-6.482c0-4.383 1.044-6.472 3.133-6.472 6.267 0 23.613 10.445 29.88 17.971l6.267 7.526 1.464-6.482c0.829-3.553 2.714-6.472 4.383-6.472 4.393 0 38.031 33.014 43.674 42.834 2.509 4.598 5.427 11.069 6.062 14.418l1.464 6.062 24.443-1.669c13.373-0.625 24.658-1.669 24.863-1.669 0.205-0.215-0.625-11.284-1.884-24.443-2.714-31.754-0.84-119.091 3.553-154.614 5.222-43.039 12.954-82.319 21.309-107.182 20.060-60.59 66.652-110.111 127.037-134.973 25.283-10.445 22.354-11.284 35.308 10.66l11.489 19.436-10.865 2.294c-42.629 8.776-77.937 32.594-108.227 72.714-28.416 37.396-44.298 84.408-53.279 158.372-3.758 29.46-5.018 115.118-2.089 129.956l1.464 7.936 19.016-20.060c10.445-11.284 20.48-20.060 22.569-20.060 2.509 0 4.383 2.089 5.222 6.472l1.464 6.482 4.803-7.107c5.018-7.516 22.774-18.391 30.085-18.391 3.553 0 4.383 1.249 4.383 6.687v6.472l5.018-4.598c4.598-4.178 21.105-10.65 27.791-10.65 1.464 0 2.714 1.464 2.714 3.133 0 3.973 1.884 3.973 7.107 0 5.427-3.973 13.578-3.973 15.043 0 1.044 2.714 2.089 2.509 6.482-1.044 7.516-5.847 16.927-5.427 19.425 0.84 1.884 4.803 2.089 5.018 10.24 2.089 8.776-2.929 14.418-2.089 18.176 3.133 1.464 1.669 3.758 2.509 5.847 1.669 5.222-2.089 13.793 0.625 13.793 3.973 0 1.884 2.714 2.929 7.936 3.133 4.178 0.215 17.551 0.84 29.665 1.669l21.934 1.249-10.66 10.66c-5.642 5.847-14.838 12.329-20.060 14.418-5.222 2.294-10.24 5.847-11.284 8.151-1.044 2.509-3.973 4.598-6.687 5.018-2.509 0.42-6.892 2.929-9.82 5.847-3.133 3.133-7.526 5.018-11.704 5.018-3.553 0-7.731 1.464-8.991 3.338-2.929 3.973-18.391 7.526-25.068 5.847-3.758-0.84-5.222-0.215-6.062 3.133-0.84 3.758-2.714 4.383-13.578 4.383-7.107 0-15.043-0.84-17.971-2.089-4.803-1.669-5.427-1.464-5.427 2.294 0 4.393-0.84 4.393-19.845 3.553-11.694-0.42-19.845 0-19.845 1.26 0 2.089-41.574 0-56.412-2.929-5.222-1.044-15.043-1.884-21.934-1.884l-12.534 0.215 12.534 2.918c6.892 1.464 15.462 2.714 18.801 2.714 3.553 0.205 14.838 2.509 25.068 5.222 10.445 2.714 27.372 6.687 37.612 8.571 22.149 4.178 26.112 6.062 24.863 11.069-1.044 3.348 0.625 3.758 15.043 3.973 20.060 0.205 32.809 5.427 31.13 12.749-1.044 4.178-0.42 4.598 7.311 4.598 5.642 0 13.578 2.509 23.194 7.516 13.373 6.687 14.623 7.731 13.578 12.534-1.249 4.598-0.625 5.018 5.642 5.018 8.776 0 25.487 5.642 28.836 9.615 1.884 2.294 1.884 3.758 0.215 5.437-3.973 3.973-2.929 5.847 3.338 5.847 5.847 0 23.613 9.82 26.532 14.623 0.84 1.249 0.42 3.553-0.84 4.803-3.758 3.758-2.714 4.803 6.687 8.571 12.329 4.598 21.105 13.998 19.845 20.89-0.84 4.383-0.205 5.437 5.018 6.482 6.892 1.669 20.48 12.534 20.48 16.712 0 1.464-1.464 3.758-3.133 5.222-2.714 2.294-2.089 3.133 5.018 6.482 9.82 4.393 16.712 13.373 12.954 17.132-3.553 3.553-2.929 4.803 7.936 12.534 11.069 7.936 15.043 15.258 10.445 18.391-2.089 1.249-2.304 2.294-0.625 3.553 6.902 4.598 32.799 40.325 37.612 51.61 4.393 10.66 0.215 11.284-17.132 2.509-7.936-3.973-20.685-9.196-28.416-11.704-7.516-2.509-16.292-6.892-19.016-9.82-4.598-4.598-5.437-4.803-7.107-1.884-2.714 4.803-11.489 2.294-19.845-5.642-6.267-5.847-6.892-6.062-9.4-2.509-2.714 3.758-3.133 3.758-12.114-1.044-5.222-2.714-11.069-7.731-13.158-11.069-3.348-5.427-4.178-5.642-6.687-2.929-1.464 1.884-3.758 3.338-5.222 3.338-3.133 0-21.105-16.712-22.354-20.89-0.84-2.714-1.464-2.714-4.383-0.42-2.304 2.089-4.393 2.294-7.311 0.625-5.437-2.929-16.507-15.667-18.176-21.105-1.249-4.178-1.669-4.178-5.222-1.044-3.553 3.348-4.383 2.929-13.158-5.018-5.222-4.803-10.445-11.489-11.909-14.838-2.714-6.687-3.553-7.107-8.151-4.393-4.178 2.714-17.551-7.936-21.105-16.507-2.294-5.427-3.338-6.062-8.151-4.803-2.929 0.625-6.687 2.714-8.571 4.383-2.714 2.714-2.509 3.338 0.84 5.437 8.151 4.803 26.327 20.48 28.621 24.443 1.669 3.133 1.464 5.018-0.42 7.311-1.26 1.669-2.089 3.133-1.669 3.553 0.42 0.205 4.393 2.294 8.776 4.383 4.393 2.294 10.865 7.731 14.418 12.329 5.847 7.311 6.267 8.356 3.133 11.284-3.133 3.133-2.929 3.758 3.133 8.356 3.758 2.509 10.24 9.196 14.838 14.623l8.151 9.82-10.865 7.946 11.069 10.025c6.062 5.437 12.329 12.329 13.793 15.462 2.714 4.803 2.509 5.642-2.089 9.4l-5.018 3.973 5.222 2.089c5.018 1.884 20.89 19.845 20.89 23.613 0 0.84-2.294 3.338-4.803 5.427l-5.018 3.758 7.936 5.018c4.598 2.929 10.035 9.196 12.749 14.213l4.803 9.196-5.847 4.803-5.642 4.598 5.427 4.803c5.642 4.803 13.169 19.64 13.373 25.702 0 2.089-2.929 5.222-6.472 7.107l-6.482 3.348 6.062 3.758c6.267 3.758 13.158 16.927 13.158 25.068 0 2.929-1.464 4.178-4.803 4.178-7.311 0-8.151 2.089-3.758 9.196 3.973 6.482 7.311 23.398 9.82 49.521 2.089 22.354-4.598 29.46-14.203 15.043-2.918-4.383-8.776-11.284-13.158-15.247-4.178-3.973-10.66-10.24-14.418-13.793-5.222-5.222-7.526-6.267-10.445-4.598-2.509 1.464-5.427 0.625-10.66-2.509-8.151-5.018-11.489-10.025-11.489-16.712 0-4.393-0.205-4.598-5.222-1.26-2.714 1.884-5.847 3.348-6.892 3.348-4.598 0-15.258-13.793-16.302-21.105l-1.249-7.731-6.267 3.553c-6.062 3.338-6.062 3.338-12.114-3.973-8.151-9.82-12.534-19.016-12.534-26.952 0-7.526-0.205-7.526-8.571-3.338-3.348 1.884-6.902 2.929-7.731 2.294-4.598-2.714-11.284-20.89-10.445-28.621 0.84-8.776 0.42-9.196-7.731-6.062-5.222 1.884-5.642 1.464-10.445-8.98-2.929-5.847-5.222-14.623-5.222-19.22 0-7.936-0.205-8.356-6.687-8.356-6.062 0-6.892-0.84-10.66-11.489-2.304-6.892-3.553-14.203-2.929-18.176 1.044-6.267 0.625-6.892-3.758-6.892-6.472 0-9.605-5.847-10.865-21.105-0.84-8.356-0.42-13.373 1.464-15.462 2.294-2.714 1.669-3.133-3.758-3.133-5.642 0-6.482-0.84-8.571-9.196-2.918-11.704-2.918-23.194-0.205-28.621 2.089-3.553 1.464-3.973-5.018-3.973-6.892 0-7.526-0.625-9.82-8.776-1.26-5.018-1.884-14.418-1.464-20.89 0.84-11.284 0.625-12.114-3.758-12.114-4.393 0-4.393 0.42-2.304 7.526 2.089 6.687 1.884 7.936-2.294 10.865l-4.598 3.553 6.267 9.4c5.847 8.776 12.534 26.327 12.534 32.799 0 1.464-2.294 2.714-5.018 2.714-7.107 0-8.356 2.929-3.338 7.311 5.222 4.598 10.445 21.729 10.445 33.638 0 8.571-0.42 8.98-7.107 10.24l-7.107 1.464 5.018 7.311c8.776 12.954 12.114 33.219 6.062 35.103-10.66 3.338-10.24 2.929-6.687 6.892 5.437 5.847 9.82 18.391 9.82 27.576 0 8.151-0.205 8.356-6.892 8.356-8.98 0-10.24 1.464-6.687 7.107 1.669 2.509 3.758 10.445 4.393 17.347l1.464 12.954-7.731 3.133c-7.526 3.133-7.731 3.338-4.393 8.356 3.973 5.847 6.482 27.156 4.393 35.523-1.249 4.803-2.509 5.437-9.82 5.437-7.731 0-8.151 0.205-5.222 3.338 2.089 1.884 3.348 6.892 3.348 12.329 0 13.578-1.464 15.667-10.66 15.667-7.526 0-8.151 0.42-6.062 3.973 1.044 2.294 2.089 6.687 2.089 9.615 0 9.196-3.553 13.578-11.069 13.578-6.482 0-6.902 0.42-6.062 6.892 1.044 9.615-3.758 13.998-15.258 13.998-7.332-0.041-9.841-1.085-11.715-4.434zM344.494 529.797c3.973-7.311-1.669-6.482-6.062 1.044-4.178 7.107-4.178 7.311-0.205 5.222 2.294-1.249 5.007-3.963 6.267-6.267zM649.339 524.575c-4.393-7.526-10.035-8.356-6.062-1.044 1.669 3.133 7.311 7.936 9.82 8.356 0.205 0-1.464-3.338-3.758-7.311z" />
<glyph unicode="&#xe918;" glyph-name="e918" data-tags="" d="M226.816 892.918v-56.842h-105.841v-503.716h105.841v-115.64h139.162v10.783c0 26.849 10.783 52.726 29.788 70.758 6.861 6.472 13.916 12.739 15.677 13.722 3.133 1.761 2.355 5.1-9.021 38.021l-12.544 36.26-212.060 0.973v392.008h372.408v-160.922c0-147.978 0.195-160.911 3.133-159.744 10.189 3.922 22.344 5.489 37.048 4.7l16.66-0.778v50.176h25.477v143.073h-25.477v180.326h-105.841v113.684h-274.412v-56.842zM394.404 625.377c-11.366-4.311-20.777-12.739-27.238-24.699-10.588-19.405-11.561-15.288 42.732-173.261 75.459-219.126 85.258-247.941 84.48-247.941-0.389 0-13.527 24.699-29.399 54.876l-29.010 54.876-5.683-3.533c-9.8-5.489-22.733-21.361-27.238-33.321-5.1-13.722-5.683-34.693-0.983-47.432 4.506-12.155 36.26-73.103 50.76-97.802 25.088-42.332 38.615-51.354 93.491-62.126 47.432-9.411 46.449-8.622 64.676-44.882 8.038-16.271 18.033-34.888 22.149-41.748l7.444-12.155h262.431l-2.744 6.277c-1.372 3.523-13.916 31.56-27.638 62.331-32.727 73.308-44.104 101.724-44.104 109.957 0.195 8.038 1.372 13.138 10.588 44.882 13.916 47.237 13.916 77.025 0.195 117.596-3.922 11.366-14.5 46.060-23.521 77.025-9.216 31.16-18.422 58.993-20.582 62.136-6.666 9.411-19.599 14.305-34.888 13.332-7.25-0.389-16.466-2.355-20.777-4.506-9.8-4.7-20.777-16.077-22.149-22.938-1.761-8.622-4.116-8.233-5.489 0.584-2.744 15.483-20.972 29.204-39.199 29.204-18.811 0-42.537-15.288-45.271-29.010-1.567-7.844-2.939-7.844-6.861 0.195-3.717 7.455-13.128 14.316-24.095 17.254-18.432 5.1-42.537-3.912-52.726-19.794-5.1-8.038-5.489-9.8-4.506-21.555 0.594-7.055 1.567-14.899 2.161-17.644 1.956-9.411-1.178-0.389-40.96 115.446-29.594 86.047-41.554 117.996-45.67 123.085-8.622 10.783-22.538 17.050-38.81 17.644-8.438 0.389-16.865-0.584-21.565-2.355z" />
<glyph unicode="&#xe919;" glyph-name="e919" data-tags="" d="M473.211 949.309c-103.004-10.598-186.972-42.578-265.257-101.038-24.719-18.442-78.090-71.813-96.532-96.532-53.166-71.414-85.729-150.876-98.683-241.715-3.338-23.153-3.338-100.454 0-123.607 13.926-97.505 51.599-184.617 110.848-256.625 148.132-179.917 398.674-234.65 607.037-133.018 50.033 24.525 89.078 51.988 129.884 91.423 42.772 41.4 73.769 83.773 100.055 136.561 95.355 191.099 60.426 417.905-88.095 571.525-78.664 81.418-176.763 131.84-290.365 149.299-19.814 2.949-91.628 5.499-108.892 3.727zM452.618 729.958c0-34.14 1.178-38.451 9.81-38.451s9.81 4.321 9.81 38.451v32.174h78.479v-32.174c0-34.14 1.178-38.451 9.81-38.451s9.81 4.321 9.81 38.451v32.174h29.624c16.476 0 31.191-0.983 33.352-1.966 3.533-1.966 3.727-4.516 3.727-34.918v-32.768l9.81-38.257c8.827-34.335 9.81-40.417 9.615-58.86 0-11.377-4.127-118.303-9.226-237.599-7.26-167.547-10.004-217.774-11.971-220.334-2.355-2.744-8.049-3.133-40.417-3.133-33.352 0-38.062 0.389-40.806 3.533-2.355 2.55-7.649 40.612-22.364 161.864-10.598 87.122-19.62 158.341-20.204 158.341s-9.216-68.28-19.425-151.47c-20.408-168.929-20.408-168.141-23.941-170.496-1.567-0.983-19.231-1.761-39.24-1.761-27.863 0-37.274 0.584-40.028 2.744-3.533 2.55-4.321 14.909-12.943 220.129-5.294 119.685-9.421 227.594-9.421 239.954-0.195 20.797 0.584 25.313 9.615 60.232 9.81 37.673 9.81 37.673 9.81 69.253 0 27.863 0.389 31.59 3.533 33.352 1.772 1.178 16.681 2.161 33.352 2.161h29.819v-32.174zM504.801 737.423c-6.083-5.888-1.772-16.476 6.666-16.476 1.966 0 5.1 1.372 6.676 3.144 1.761 1.567 3.133 4.71 3.133 6.666s-1.372 5.1-3.133 6.666c-1.567 1.761-4.71 3.144-6.676 3.144-1.956-0.010-5.089-1.382-6.666-3.144z" />
<glyph unicode="&#xe91a;" glyph-name="e91a" data-tags="" d="M473.211 949.309c-103.004-10.598-186.972-42.578-265.257-101.038-24.719-18.442-78.090-71.813-96.532-96.532-53.166-71.414-85.729-150.876-98.683-241.715-3.338-23.153-3.338-100.454 0-123.607 13.926-97.505 51.599-184.617 110.848-256.625 148.132-179.917 398.674-234.65 607.037-133.018 50.033 24.525 89.078 51.988 129.884 91.423 42.772 41.4 73.769 83.773 100.055 136.561 95.355 191.099 60.426 417.905-88.095 571.525-78.664 81.418-176.763 131.84-290.365 149.299-19.814 2.949-91.628 5.499-108.892 3.727zM655.872 717.015c17.654-8.632 37.478-28.447 46.305-46.5 5.489-11.377 6.472-15.299 6.472-27.464 0-10.988-0.788-14.909-3.533-17.654-3.338-3.338-3.533-3.338-4.71 1.178-2.949 11.182-16.681 35.707-27.863 49.644-13.537 17.070-30.996 30.996-47.872 38.851-10.988 4.905-11.182 5.294-6.871 7.455 7.864 3.912 23.552 1.556 38.072-5.509zM619.387 693.862c26.88-12.749 56.504-48.261 62.587-74.557 1.761-8.243 1.761-8.438-5.294-11.377-9.021-3.727-10.598-2.939-13.937 6.277-10.199 29.235-41.001 58.266-72.397 68.475-10.988 3.533-10.988 3.533-2.55 14.131 6.083 7.649 10.394 7.25 31.59-2.949zM599.962 659.722c23.153-10.793 42.772-32.369 49.828-55.132 1.772-5.693 3.727-11.581 4.71-13.148 2.161-4.516-0.983-41.206-4.71-54.149-7.26-24.914-19.814-45.322-49.050-79.268-30.013-34.724-83.968-110.070-98.294-136.755-6.277-11.776-6.083-21.78 0.584-34.529 4.116-8.038 5.294-12.943 5.489-22.958 0-23.941-12.36-35.318-39.823-36.096-19.62-0.788-28.641-4.311-72.008-28.846-40.806-23.153-50.422-27.269-63.57-27.269-8.827 0-9.81 0.584-14.52 7.455l-5.294 7.455 3.533 9.615c3.533 9.81 6.277 12.554 28.252 27.668 14.715 10.199 44.728 52.972 78.285 111.237 14.715 25.508 64.553 124.785 112.22 223.078 24.525 50.616 29.43 62.392 31.785 75.54 1.567 8.632 2.744 18.831 2.939 22.764 0 3.922 0.594 7.649 1.567 8.438 2.376 2.56 17.091 0 28.078-5.1z" />
<glyph unicode="&#xe91b;" glyph-name="e91b" data-tags="" d="M457.492 542.372v-411.003h259.953c158.925 0 259.953 0.788 259.953 1.772 0 1.577-507.505 802.519-517.151 816.497-2.365 3.338-2.755-56.525-2.755-407.265zM226.683 512.041c-98.273-205.609-179.22-375.368-179.999-377.139-1.178-3.348 8.274-3.543 179.21-3.543h180.398v377.139c0 207.37-0.195 377.129-0.594 377.129s-80.947-168.182-179.016-373.586zM120.136 59.873c4.137-4.731 29.542-32.297 56.525-61.051l49.234-52.582h530.145l48.056 51.599c26.583 28.355 52.183 55.736 56.719 61.051l8.663 9.452h-757.023l7.68-8.468z" />
<glyph unicode="&#xe91c;" glyph-name="e91c" data-tags="" d="M476.703 949.105c-105.892-9.605-200.223-53.729-274.739-128.051-66.673-66.673-106.291-143.544-123.74-240.425-4.311-22.948-4.311-28.242-5.1-223.949l-0.594-200.612h251.013l0.594 192.768c0.584 190.812 0.788 192.768 4.905 207.483 10.199 36.475 25.692 62.751 51.374 88.054 25.498 25.293 54.518 41.574 89.62 50.401 18.627 4.71 65.3 4.71 83.927 0 36.28-9.021 63.539-24.515 90.399-51.374 26.47-26.47 41.38-52.552 51.384-89.426 3.133-11.377 3.328-30.198 3.922-205.128l0.778-192.768h251.013l-0.584 200.612c-0.788 195.512-0.788 201.001-5.1 223.949-17.449 96.481-57.262 173.947-123.74 240.425-66.867 66.867-146.678 107.858-240.425 123.546-22.938 3.717-83.732 6.461-104.909 4.495zM72.735 36.25v-76.677l13.332-13.332h224.338l13.332 13.332v153.354h-251.003v-76.677zM700.252 36.25v-76.677l13.332-13.332h224.338l13.332 13.332v153.354h-251.003v-76.677z" />
<glyph unicode="&#xe91d;" glyph-name="e91d" data-tags="" d="M151.654 946.084c-13.711-4.895-17.388-9.554-17.388-21.791 0-11.51 1.956-14.94 43.1-71.26 46.039-63.181 97.71-150.354 119.501-202.025 24.975-59.013 29.635-83.507 29.635-153.303v-49.951h-156.723v31.826h-31.826v-124.887h31.826v29.389h156.488l0.983-98.447c0.983-108.728 1.475-112.886 19.098-162.601 30.853-87.91 91.587-144.476 177.787-166.523 84.972-21.555 181.709-8.571 244.634 33.055 60.733 40.161 101.622 107.991 116.316 193.208 4.157 24.975 4.649 40.161 4.649 148.152 0 137.626-0.492 141.056-18.606 178.033-9.554 19.343-15.186 26.941-32.573 44.329-17.633 17.388-24.975 22.774-44.329 32.328-29.635 14.449-56.074 20.081-86.938 18.125-62.935-3.922-118.528-41.39-145.459-98.202-7.834-16.65-14.94-41.144-14.94-51.425v-6.369h-64.164l0.983 64.399c0.983 60.979 1.464 65.137 7.588 85.217 22.774 73.953 79.831 176.067 155.986 278.671 24.003 32.573 26.941 37.96 26.941 50.196 0 9.554-7.588 17.633-19.835 21.064-5.151 1.475-100.157 2.447-250.767 2.447-200.54-0.225-244.132-0.717-251.965-3.656zM745.492 532.726c25.713-12.493 43.1-37.714 48.732-70.533 1.956-10.772 2.447-54.364 1.956-137.134l-0.983-120.975-6.861-22.036c-9.544-31.345-19.589-48.978-39.424-68.813-28.406-28.652-60.488-40.653-110.193-40.653-75.674-0.246-124.887 35.267-148.398 107.018-5.386 16.404-5.632 20.818-6.615 110.93l-0.737 93.542h61.46v-57.303c0-62.935 1.71-76.155 12.001-98.693 26.204-55.828 94.034-77.875 150.845-49.224 15.186 7.834 36.485 29.88 45.056 46.776 10.527 20.818 13.22 38.687 11.756 76.401-1.475 37.468-6.369 56.32-21.064 79.094-26.204 40.407-64.891 62.935-113.869 65.874l-21.545 1.464 1.475 12.247c3.43 25.958 17.879 51.671 35.748 64.164s32.563 16.159 61.225 15.432c22.292-0.727 27.679-1.7 39.434-7.578zM650.486 380.16c14.94-5.14 34.529-22.774 42.854-38.697 5.878-11.264 6.615-15.667 7.352-44.564 0.983-35.021-0.492-41.39-13.711-55.593-9.308-9.789-28.897-15.186-42.609-11.51-14.203 3.922-25.958 13.23-31.59 25.467-3.922 8.817-4.649 16.65-4.649 69.55v59.259h15.432c8.55 0.010 20.552-1.71 26.921-3.912z" />
<glyph unicode="&#xe91e;" glyph-name="e91e" data-tags="" d="M746.486 948.122c-11.981-3.932-24.945-13.548-32.993-24.74-9.226-12.769-500.388-872.724-508.631-890.604-5.693-12.37-6.287-32.993-1.372-46.346 17.674-46.94 77.568-54.989 108.012-14.725 4.127 5.693 64.614 110.172 134.328 232.12 69.519 121.958 181.658 318.536 249.211 436.756s124.703 220.539 127.252 227.41c14.336 39.086-12.769 79.923-54.589 82.094-7.67 0.389-16.507-0.399-21.217-1.966zM183.060 633.324c-5.304-1.567-12.37-4.71-15.708-7.066-3.144-2.355-37.509-34.959-76.001-72.663-80.128-78.367-81.111-79.544-81.111-105.462 0-26.112 0.788-27.095 83.067-107.418 76.585-74.824 80.517-77.967 100.946-80.323 20.623-2.355 45.169 8.643 56.955 25.928 7.066 10.015 12.175 30.044 10.404 40.653-3.144 19.446-8.049 25.723-57.149 74.435l-46.94 46.735 46.94 46.541c36.526 36.526 47.913 48.896 51.456 56.556 6.482 14.531 7.465 24.351 3.932 38.298-5.693 22.19-20.419 37.509-42.414 43.991-12.78 3.912-21.617 3.717-34.376-0.205zM808.54 634.102c-36.137-10.209-54.2-48.701-38.687-82.872 4.71-10.209 11.786-18.063 52.040-57.344l46.541-45.752-46.541-45.558c-40.264-39.475-47.329-47.329-52.040-57.539-13.742-30.249-1.372-64.41 28.477-78.95 9.032-4.321 13.947-5.304 25.928-5.304 26.511 0 27.494 0.584 108.012 80.517 80.507 79.923 81.49 81.101 81.49 106.834 0 25.528-0.983 26.706-81.306 106.639-59.505 59.31-72.264 70.892-81.5 75.213-13.353 6.083-30.044 7.649-42.414 4.116z" />
<glyph unicode="&#xe91f;" glyph-name="e91f" data-tags="" d="M428.646 605.286c-86.733-45.978-119.808-154.010-73.83-240.64 45.978-86.733 154.010-119.808 240.64-73.83 86.733 45.978 119.808 154.010 73.83 240.64s-154.010 119.808-240.64 73.83zM553.677 369.357c-43.418-23.040-97.28-6.451-120.32 36.966s-6.451 97.28 36.864 120.32c43.418 23.040 97.28 6.451 120.32-36.966 23.142-43.418 6.554-97.28-36.864-120.32zM276.89 891.187c-244.736-129.843-337.92-433.459-208.077-678.298 129.843-244.736 433.459-337.92 678.195-208.077s337.92 433.459 208.077 678.195c-129.741 244.838-433.357 338.022-678.195 208.179zM376.115 25.907c-92.57 26.931-176.333 83.763-235.622 165.786l132.096 78.234c33.382-41.882 77.005-72.704 125.235-90.726l-21.709-153.293zM625.766 233.574c-118.272-62.669-265.523-17.51-328.192 100.659-62.669 118.272-17.51 265.523 100.762 328.192 118.17 62.669 265.421 17.51 328.192-100.762 62.669-118.17 17.408-265.421-100.762-328.090zM739.328 629.862c-33.382 41.882-77.005 72.704-125.235 90.726l21.709 153.395c92.57-26.931 176.333-83.763 235.622-165.786l-132.096-78.336z" />
<glyph unicode="&#xe920;" glyph-name="e920" data-tags="" d="M504.013 508.109l-43.213-36.25c9.83-7.885 18.534-11.878 25.907-12.288s13.926 2.355 19.456 8.397c2.253 2.458 3.994 5.12 4.813 7.885 1.126 2.765 1.331 5.734 1.126 9.011-0.41 3.277-1.229 6.758-2.458 10.547-1.536 3.789-3.379 8.192-5.632 12.698zM513.741 580.915c-4.403-4.71-6.451-10.24-6.042-16.282s2.56-13.414 6.554-21.811l41.267 34.202c-9.114 7.168-17.306 10.854-24.269 11.162-6.758 0.307-12.8-2.048-17.51-7.27zM597.402 121.446c0-4.71-3.789-8.397-8.397-8.397h-201.011c-4.608 0-8.397 3.789-8.397 8.397v50.586c0 4.608 3.789 8.397 8.397 8.397h201.011c4.608 0 8.397-3.789 8.397-8.397v-50.586zM689.152 353.28l-56.115 103.014c-11.878 21.709-36.25 31.334-54.579 21.402-18.227-9.933-23.45-35.635-11.571-57.344l41.574-76.595-91.136-85.709c-19.456-17.408-50.176-22.938-79.053 1.946l-58.573 60.928v-104.55c0-10.445 8.397-18.944 18.842-18.944h183.091c11.571 0 20.685 11.571 20.685 11.571l84.787 94.925-0.102 0.205c10.035 12.288 11.469 31.949 2.15 49.152zM753.459 598.733l-167.424 167.526c-22.426 22.426-58.778 22.323-81.101 0l-234.189-234.189c-22.426-22.426-22.426-58.778 0-81.203l167.526-167.322c10.854-10.854 25.19-16.794 40.448-16.794 15.36 0 29.798 5.939 40.653 16.794l68.915 69.222c0.717 0.614-37.274 60.928-39.936 80.077-2.97 21.709-0.614 38.707 17.203 50.995 29.491 20.378 58.368 3.686 74.547-18.534 5.222-7.168 23.45-38.707 22.835-39.322l90.522 91.75c10.752 10.854 16.896 25.293 16.896 40.55s-6.144 29.696-16.896 40.448zM595.763 565.35c3.072-3.891 5.837-7.578 8.294-11.264l-14.95-15.872c-2.765 4.403-5.837 8.704-9.114 13.005-3.174 4.198-6.451 8.192-9.728 11.878l-47.104-39.219c2.867-6.042 5.734-12.186 8.192-18.432 2.56-6.246 4.301-12.493 5.222-18.739 1.126-6.246 0.717-12.288-0.717-18.33s-4.71-11.674-9.728-17.203c-5.427-5.837-11.366-9.933-17.818-12.288-6.554-2.458-13.312-3.174-20.275-2.458-7.066 0.717-14.438 2.867-21.914 6.554-7.373 3.686-14.848 8.602-22.221 14.746l-26.419-21.709-14.95 13.824 26.214 21.606c-5.12 5.53-9.83 10.957-14.131 16.384s-7.782 10.445-10.547 14.746l15.872 17.203c2.97-5.427 6.554-11.059 10.65-16.794 4.198-5.734 9.216-11.571 15.053-17.613l49.254 41.267c-2.867 5.837-5.427 11.776-7.885 17.715-2.355 6.042-3.994 11.878-4.71 17.818-0.819 6.042-0.41 11.878 0.922 17.613s4.506 11.264 9.318 16.589c3.994 4.301 8.909 7.782 14.541 10.342 5.53 2.56 11.878 3.789 18.739 3.686 6.963-0.205 14.336-1.741 22.118-4.915 7.68-3.072 15.77-8.090 24.064-15.053l20.787 17.408 14.95-13.722-21.402-17.818c3.277-3.277 6.451-7.066 9.421-10.957zM512-53.76c-276.685 0-501.76 225.075-501.76 501.76s225.075 501.76 501.76 501.76c276.787 0 501.76-225.075 501.76-501.76s-224.973-501.76-501.76-501.76zM512 921.702c-261.222 0-473.702-212.582-473.702-473.702 0-261.222 212.48-473.702 473.6-473.702s473.805 212.48 473.805 473.702c0 261.12-212.582 473.702-473.702 473.702z" />
<glyph unicode="&#xe921;" glyph-name="e921" data-tags="" d="M512 676.045c50.586 0 91.238 41.062 91.238 91.238 0 17.306-4.608 33.28-13.21 47.002l-78.029 135.475-78.029-135.475c-8.704-13.722-13.21-29.696-13.21-47.002 0-50.176 41.062-91.238 91.238-91.238v0zM721.818 220.365l-48.845 48.845-49.254-48.845c-59.29-59.29-163.328-59.802-223.027 0l-48.845 48.845-49.766-48.845c-29.696-29.696-69.325-46.080-111.309-46.080-33.28 0-63.898 10.445-89.395 27.853v-210.33c0-25.088 20.48-45.568 45.568-45.568h729.805c25.088 0 45.568 20.48 45.568 45.568v210.33c-25.498-17.306-56.115-27.853-89.395-27.853-41.779 0-81.408 16.486-111.104 46.080v0zM785.715 539.238h-228.147v91.238h-91.238v-91.238h-228.045c-75.674 0-136.806-61.133-136.806-136.806v-70.246c0-49.254 40.141-89.395 89.395-89.395 23.757 0 46.49 9.114 62.976 26.010l97.587 97.178 97.178-97.178c33.792-33.792 92.57-33.792 126.362 0l97.587 97.178 97.178-97.178c16.896-16.896 39.219-26.010 62.976-26.010 49.254 0 89.395 40.141 89.395 89.395v70.246c0.41 75.674-60.723 136.806-136.397 136.806v0z" />
<glyph unicode="&#xe922;" glyph-name="e922" data-tags="" d="M340.9 699.382c-176.517-103.967-323.43-191.212-325.908-193.475l-4.751-4.291v-241.613c0-153.242 0.901-243.19 2.263-245.903 1.126-2.263 4.977-4.977 8.366-6.103 4.741-1.577 120.463 15.37 492.943 72.776 481.874 74.138 486.615 75.039 492.718 80.916l6.103 6.103 0.676 238.899 0.451 238.674-4.741 9.943c-4.516 9.492-14.469 16.497-171.325 121.149-91.535 61.020-168.387 111.196-170.865 111.657-2.724 0.44-128.164-72.11-325.929-188.733zM815.77 745.267c76.39-50.852 139.223-93.123 139.223-93.798s-188.723-30.29-419.267-65.772c-230.533-35.492-418.58-63.744-417.454-62.607 0.901 0.901 124.314 73.912 273.93 162.058l272.353 160.246 5.878-3.615c3.4-2.263 68.71-45.435 145.336-96.512zM975.34 396.288v-205.455l-6.103-1.352c-15.37-3.164-918.989-141.486-919.89-140.81-0.451 0.451-0.451 81.592-0.225 180.142l0.676 179.456 7.68-14.469c27.576-51.528 68.936-98.775 100.577-114.36 33.454-16.271 56.504-13.107 88.371 12.882 7.68 6.103 25.539 23.501 39.557 38.42 30.065 32.092 46.336 45.199 56.504 45.435 10.844 0.451 23.736-14.019 55.828-62.157 32.768-49.050 48.814-67.809 65.096-75.264 22.374-10.629 43.622-6.103 62.382 12.882 16.271 16.497 30.966 44.974 60.805 118.436 12.646 30.74 24.852 59.894 27.331 64.87l4.526 8.817 6.779-4.065c3.615-2.263 21.473-17.172 39.557-33.454 45.66-41.359 61.932-50.627 88.596-50.852 17.183 0 28.027 4.291 39.557 15.37 11.981 11.53 22.149 32.553 37.519 78.203 7.455 21.473 16.271 44.974 19.661 52.214 7.69 15.37 30.966 40.008 55.603 58.542 16.722 12.657 64.42 42.035 67.809 42.035 1.126-0.010 1.802-92.457 1.802-205.466z" />
<glyph unicode="&#xe923;" glyph-name="e923" data-tags="" d="M502.712 937.39c-12.37-19.64-28.867-53.811-34.755-72.069-3.932-12.564-5.304-20.818-5.499-33.382-0.195-20.623 2.744-31.222 10.998-39.864 7.854-8.448 17.285-11.192 38.687-11.192s30.833 2.744 38.687 11.192c8.243 8.643 11.192 19.241 11.192 39.864-0.195 19.241-6.676 41.431-20.623 69.13-10.404 21.012-27.095 48.701-29.256 48.701-0.788-0.010-5.11-5.509-9.431-12.38zM524.114 856.484c9.226-18.258 10.404-21.996 10.404-33.577 0.195-11.786-0.195-13.353-5.304-17.674-4.516-3.932-7.66-4.71-17.869-4.71-10.609 0-12.964 0.584-17.080 5.11-6.482 7.066-6.482 24.74 0.389 40.059 6.676 15.124 15.903 31.416 17.674 31.416 0.993-0.010 6.287-9.236 11.786-20.623zM482.683 664.033v-103.107h-169.472c-143.944 0-171.049-0.389-180.664-2.949-37.315-9.626-61.665-37.509-66.376-75.807-1.178-10.209-1.772-51.651-1.372-105.062 0.594-80.128 0.983-88.76 4.127-94.464 2.949-5.499 4.516-6.482 10.404-6.482 3.727 0 8.837 1.178 11.192 2.744 12.964 8.448 56.166 13.158 81.695 9.226 24.156-3.727 42.619-11.192 78.746-31.611 92.692-52.040 149.443-74.424 204.237-80.517 50.668-5.693 84.050 5.888 160.051 55.572 66.365 43.428 91.105 54.426 122.532 54.426 29.46 0 88.955-11.786 163.973-32.205 18.063-4.915 35.348-9.032 38.298-9.032 7.26 0 13.947 7.66 16.691 19.046 1.772 6.871 2.161 39.475 1.372 120.576l-1.178 110.95-7.27 14.725c-8.243 16.886-22.19 31.816-36.526 39.67-21.012 11.387-17.48 11.192-202.076 11.192h-169.472v206.193h-58.921v-103.086zM220.713 421.304c15.708-7.465 21.012-28.477 10.803-42.609-8.643-12.175-27.494-15.913-39.67-7.66-18.463 12.175-17.674 39.076 1.372 49.879 9.626 5.499 16.886 5.693 27.494 0.389zM372.705 421.898c9.626-4.71 15.708-14.725 15.708-25.723 0-26.706-30.833-39.67-49.49-20.818-22.968 22.968 4.721 61.266 33.782 46.541zM522.547 422.676c15.124-6.277 21.996-22.385 16.108-37.509-4.321-11.387-12.37-17.285-25.334-18.063-18.463-1.372-31.416 11.592-30.044 30.044 1.567 21.412 20.224 33.587 39.27 25.528zM677.1 421.693c26.511-13.947 17.080-55.183-12.769-55.183-17.674 0-32.399 16.497-29.46 33.382 3.348 19.845 24.945 31.037 42.23 21.801zM826.931 422.676c15.124-6.277 21.996-22.385 16.108-37.509-8.448-22.579-39.475-25.139-52.040-4.516-14.541 23.767 10.404 52.828 35.932 42.025zM114.668 241.623c-7.465-1.772-16.108-4.321-19.241-5.888l-5.499-2.949v-219.75l843.448 0.983v184.392l-14.725 4.516c-49.684 15.124-139.827 34.765-171.633 37.12-33.577 2.755-60.488-8.243-125.481-50.668-73.052-47.718-103.301-60.488-144.927-60.488-57.928 0-118.804 21.996-225.638 81.5-37.315 20.818-56.166 28.672-78.551 32.205-17.5 2.949-41.452 2.355-57.754-0.973zM38.277-14.653c-2.949-2.161-6.287-7.27-7.465-11.387-1.772-6.287-1.567-8.643 1.178-14.725 6.676-14.141-35.154-12.964 480.143-12.964 435.569 0 466.207 0.195 471.501 3.338 8.643 5.11 12.575 15.124 9.82 24.351-1.178 4.127-4.516 9.226-7.465 11.387l-5.11 4.127h-937.503l-5.1-4.127z" />
<glyph unicode="&#xe924;" glyph-name="e924" data-tags="" d="M491.008 648.192c98.099 0 130.253 69.427 92.467 142.95-43.725 85.094 95.232 158.618 26.214 158.618-65.434 0-187.802-71.27-210.637-160.051-17.101-66.56 14.848-141.517 91.955-141.517v0zM753.050 198.246l-22.323 19.251c-24.474 21.094-62.874 20.992-87.245 0l-22.221-19.251c-31.13-26.829-70.246-40.243-109.261-40.243s-78.131 13.414-109.261 40.243l-22.323 19.354c-24.474 20.992-62.771 21.094-87.142 0l-22.323-19.251c-60.006-51.712-149.197-53.043-211.354-5.018v-196.71c0-27.75 22.528-50.278 50.278-50.278h804.352c27.75 0 50.278 22.528 50.278 50.278v196.506c-62.157-47.923-151.347-46.694-211.456 5.12v0zM512 599.757c-380.723 0-452.403-168.96-452.403-251.392v-23.552l58.47-50.381c24.474-21.197 62.771-20.992 87.245 0l22.323 19.251c62.157 53.555 156.058 53.555 218.419 0l22.323-19.354c24.371-20.992 62.566-21.094 87.245 0l22.221 19.251c62.362 53.658 156.16 53.658 218.522 0l22.323-19.251c24.474-21.197 62.874-20.992 87.245 0l58.573 50.381v23.552c-0.102 82.534-71.782 251.494-452.506 251.494v0z" />
<glyph unicode="&#xe925;" glyph-name="e925" data-tags="" d="M473.784 946.432c-95.375-17.275-188.436-96.287-266.301-225.526-52.285-86.62-91.443-191.427-110.111-293.714-5.53-29.952-6.216-39.393-6.216-88.689-0.236-48.835 0.461-58.286 5.069-81.091 21.658-107.581 86.385-196.731 182.221-251.781 147.661-84.316 348.764-78.326 488.141 14.51 93.983 62.659 150.886 156.641 164.014 269.988 11.52 101.816-20.961 244.869-85.238 373.647-99.748 200.182-239.575 306.606-371.579 282.655z" />
<glyph unicode="&#xe926;" glyph-name="e926" data-tags="" d="M290.394 500.17l221.607-316.998 221.607 316.998c39.492 56.134 60.747 123.065 60.875 191.699-1.397 109.616-70.488 206.925-173.515 244.382l-12.924 4.926c-62.17 23.625-130.593 25.053-193.694 4.043-108.736-34.284-183.24-134.424-184.832-248.425v-4.926c0.128-68.634 21.383-135.565 60.875-191.699v0z" />
<glyph unicode="&#xe927;" glyph-name="e927" data-tags="" d="M321.413 745.165c-121.16-6.687-146.534-12.39-161.485-35.799-7.076-11.213-21.043-53.699-38.349-117.228-7.281-25.969-13.373-47.596-13.568-47.995-0.389-0.389-2.949 0.788-5.898 2.755-6.103 3.932-40.12 6.103-58.808 3.932-25.958-3.348-40.12-27.146-29.501-49.562 4.721-9.83 10.813-13.773 29.901-19.671 9.441-2.755 17.306-5.315 17.705-5.704 0.389-0.389-1.966-5.704-5.11-12.001-10.424-21.043-13.179-31.662-12.984-51.927 0.195-20.060 8.264-71.393 19.671-125.491 6.492-30.884 6.687-33.833 6.687-74.742 0-46.807 0.594-49.367 11.602-56.842 6.492-4.321 8.069-4.526 52.122-4.526 41.503 0 46.029 0.389 51.732 3.932 11.602 7.086 13.373 11.807 13.967 40.714l0.788 26.163h404.787v-27.341c0-24.586 0.389-27.73 4.127-32.451 8.069-10.424 11.602-11.018 59.791-11.018s51.732 0.594 59.791 11.018c3.932 4.915 4.127 7.67 4.127 48.783 0 42.875 0.195 43.858 7.67 80.835 8.458 40.325 16.722 90.081 18.883 111.913l1.382 13.373 7.864-1.178c11.213-1.772 21.443-7.475 29.696-16.722 12.79-14.162 12.79-13.773 13.568-96.973 0.788-72.376 0.983-75.919 5.315-87.921 12.001-33.833 38.748-56.453 73.165-61.757 56.453-8.653 108.175 39.926 103.26 96.963-0.983 12.585-4.321 22.62-23.798 71.004-12.585 31.078-23.992 62.546-25.569 70.021-1.966 9.042-2.949 25.958-2.949 53.299 0 37.571 0.195 39.731 3.738 39.731 7.281 0 32.256 14.356 42.086 24.392 21.238 21.248 26.952 38.554 26.952 82.412v30.884h-17.695v35.226c0 20.46-0.983 37.571-2.161 41.308-4.332 12.585-21.637 15.933-31.468 6.298l-5.704-5.704v-77.107h-70.799v77.107l-5.704 5.704c-8.069 7.864-17.9 7.864-25.958 0l-5.704-5.704v-77.107h-19.661v-29.901c0-16.517 0.983-34.028 2.161-38.748 5.704-25.375 26.163-50.749 49.961-62.157 7.864-3.738 15.534-6.881 17.111-6.881 2.755 0 3.144-6.492 3.932-45.629 1.178-56.248 2.161-59.986 31.662-132.762 23.798-58.419 25.18-65.3 16.323-84.183-16.364-35.011-63.171-41.103-87.757-11.407-11.018 13.568-11.807 19.476-11.807 96.768 0 40.12-0.983 73.759-2.161 78.674-5.315 23.603-25.375 49.172-46.817 59.986-11.213 5.704-31.867 11.018-43.858 11.018-6.881 0-7.67 0.594-12.585 10.035-2.755 5.509-4.721 10.23-4.332 10.619s8.264 2.949 17.705 5.704c19.077 5.898 25.17 9.83 29.901 19.671 10.619 22.426-3.543 46.223-29.307 49.367-17.9 2.365-50.35 0.389-57.825-3.543-3.738-1.772-6.881-3.144-7.281-2.949-0.195 0.389-3.144 11.213-6.687 24.197-19.866 74.936-36.782 128.051-45.24 141.22-12.78 20.265-33.833 26.552-111.124 32.85-24.791 2.161-183.91 4.127-209.48 2.755zM484.669 697.17c47.606-2.161 94.607-6.687 109.169-10.424l9.636-2.355 9.636-29.501c7.864-24.586 34.816-119.388 34.028-120.177 0-0.195-10.23 1.772-22.62 4.332-100.7 20.46-273.398 23.798-400.456 7.67-20.849-2.755-52.91-8.653-65.106-12.001l-4.332-1.178 3.932 14.551c9.83 36.782 27.73 98.939 33.628 116.634l6.687 19.671 9.042 2.355c39.158 9.841 177.818 14.95 276.756 10.424zM180.777 357.1c9.441-5.315 14.756-14.95 14.756-26.552 0-18.493-12.196-30.689-30.484-30.689-27.935 0-41.308 30.689-22.426 51.927 9.441 10.824 24.781 12.984 38.154 5.315zM646.144 360.643c15.739-5.315 25.569-22.026 21.443-36.977-4.127-15.34-14.95-23.798-30.884-23.798-17.705 0-30.095 12.39-30.095 30.095 0 15.145 6.881 24.975 21.043 30.095 9.257 3.133 10.24 3.338 18.493 0.584z" />
<glyph unicode="&#xe928;" glyph-name="e928" data-tags="" d="M727.654 629.248h-117.453c0 23.962-18.739 44.954-46.694 56.73l72.192 111.104c1.638-0.307 3.277-0.41 5.018-0.41 16.998 0 30.72 13.824 30.72 30.72 0 16.998-13.824 30.72-30.72 30.72-16.998 0-30.822-13.824-30.822-30.72 0-6.246 1.843-12.083 5.12-16.998l-76.083-117.146c-8.602 1.638-17.613 2.56-26.931 2.56s-18.432-0.922-26.931-2.56l-136.806 210.739c2.97 4.608 4.71 10.138 4.71 15.974 0 16.384-13.312 29.696-29.696 29.696s-29.696-13.312-29.696-29.696c0-16.384 13.312-29.696 29.696-29.696 1.536 0 2.97 0.102 4.403 0.41l132.915-204.698c-28.058-11.776-46.694-32.768-46.694-56.73h-117.555c-113.459 0-205.312-91.955-205.312-205.312v-225.894c0-95.642 65.434-176.026 154.010-198.861-0.922-16.691-1.434-52.838 12.083-52.838 11.878 0 31.539 28.262 42.906 46.387h424.141c11.366-18.125 31.027-46.387 42.906-46.387 13.414 0 13.005 36.147 11.981 52.838 88.576 22.835 154.010 103.219 154.010 198.861v225.894c-0.102 113.357-92.058 205.312-205.414 205.312zM685.773 112.64h-454.963c-22.323 0-40.346 18.022-40.346 40.346v315.699c0 22.323 18.022 40.346 40.346 40.346h454.963c22.323 0 40.346-18.022 40.346-40.346v-315.699c0-22.323-18.125-40.346-40.346-40.346zM811.93 184.32c-26.419 0-47.718 21.402-47.718 47.718s21.402 47.718 47.718 47.718c26.419 0 47.718-21.402 47.718-47.718s-21.299-47.718-47.718-47.718zM811.93 369.254c-26.419 0-47.718 21.402-47.718 47.718 0 26.419 21.402 47.718 47.718 47.718 26.419 0 47.718-21.402 47.718-47.718 0-26.419-21.299-47.718-47.718-47.718z" />
<glyph unicode="&#xe929;" glyph-name="e929" data-tags="" d="M951.091 886.989h-878.080c-34.714 0-62.771-27.955-62.771-62.669v-627.2c0-34.714 28.058-62.771 62.771-62.771h878.080c34.714 0 62.771 28.058 62.771 62.771v627.2c-0.102 34.714-28.16 62.669-62.771 62.669zM888.32 259.789h-752.64v501.76h752.64v-501.76zM386.56 698.88v-376.32l250.88 188.211-250.88 188.109zM794.214 71.68h-564.429c-17.306 0-31.334-14.029-31.334-31.334s14.029-31.334 31.334-31.334h564.531c17.306 0 31.334 14.029 31.334 31.334s-14.131 31.334-31.437 31.334z" />
<glyph unicode="&#xe92a;" glyph-name="e92a" data-tags="" d="M709.632 525.517h-386.048c-19.456 0-36.045-14.541-36.045-33.587v-216.678c0-19.046 14.131-33.178 34.816-33.178h387.277c20.685 0 36.045 14.131 36.045 33.178h0.102v216.781c0 18.944-15.462 33.485-36.147 33.485zM512 949.76c-277.094 0-501.76-224.666-501.76-501.76s224.666-501.76 501.76-501.76c277.094 0 501.76 224.666 501.76 501.76s-224.666 501.76-501.76 501.76zM803.43 243.814c0-21.606-26.931-47.514-51.712-47.514h-469.094c-24.678 0-51.712 24.883-51.712 47.514v282.214c0 22.733 32.563 45.466 58.573 45.466h227.738l-132.813 109.875c-11.674 11.878-12.902 21.094-5.018 28.262 2.662 2.458 10.342 14.541 31.13-4.71l132.813-105.779 126.669 105.062c0 0 19.046 13.824 29.491 4.301 6.451-7.066 5.632-18.739-2.15-25.907l-128-111.002h175.616c24.781 0 58.573-22.733 58.47-45.363v-282.419z" />
<glyph unicode="&#xe92b;" glyph-name="e92b" data-tags="" d="M440.218 868.454l-37.683 49.152-177.254-136.192-177.357 136.090-37.683-49.050 128.512-98.816h-109.67v-715.264h72.294v-75.878h123.904v75.878h600.678v-75.878h123.904v75.878h63.898v715.264h-702.157l128.614 98.816zM885.76 469.811c31.949 0 57.754-25.907 57.754-57.754 0-31.949-25.907-57.754-57.754-57.754-31.949 0-57.754 25.907-57.754 57.754s25.805 57.754 57.754 57.754zM828.006 603.955c0 31.949 25.907 57.754 57.754 57.754 31.949 0 57.754-25.907 57.754-57.754 0-31.949-25.907-57.754-57.754-57.754-31.949 0-57.754 25.805-57.754 57.754zM730.931 144.077h-606.822v535.757h606.925v-535.757z" />
<glyph unicode="&#xe92c;" glyph-name="e92c" data-tags="" d="M92.16 379.904c3.379-2.97 7.885-4.71 12.288-4.198 4.506 0.205 8.704 2.355 11.674 5.632l33.792 38.093c38.298 43.11 117.965 106.906 167.424 106.906 5.018 0 9.523-0.614 13.619-1.946 27.341-8.909 61.133-65.536 74.035-197.837 0.819-8.090 1.126-17.51 1.536-27.853l0.102-3.174c2.867-75.981 10.342-277.709 228.659-277.709 0 0 0.512 0 0.512 0 84.582 0.102 154.726 28.365 208.589 83.968 108.851 112.333 104.448 296.755 104.243 304.538l-1.024 34.406c0.102 0.102 0.205 0.307 0.307 0.512l62.874 90.317c1.946 2.867 3.072 6.246 3.072 9.728v212.48c0 9.421-7.578 16.998-16.998 16.998h-37.376v73.626c0 18.739-15.258 33.997-33.997 33.997s-33.997-15.258-33.997-33.997v-73.626h-16.998v73.626c0 18.739-15.258 33.997-33.997 33.997s-33.997-15.258-33.997-33.997v-73.626h-41.882c-9.421 0-16.998-7.578-16.998-16.998v-212.582c0-3.277 1.024-6.554 2.765-9.318l58.88-90.419c0.717-1.024 1.434-2.048 2.355-2.867l1.126-36.352c0-1.331 1.741-136.192-65.946-206.029-27.75-28.57-64.102-42.598-111.514-42.598-70.349 0-88.474 28.774-92.877 146.944l-0.102 1.946c-0.512 13.312-1.024 25.805-2.15 37.069-17.51 180.224-72.192 282.931-167.219 313.856-17.51 5.734-36.045 8.602-54.989 8.602-127.59 0-246.989-126.874-269.619-152.371l-33.792-38.093c-6.246-7.066-5.632-17.715 1.434-23.962l76.186-67.686z" />
<glyph unicode="&#xe92d;" glyph-name="e92d" data-tags="" d="M1010.483 438.989c-1.946 10.138-8.806 36.045-31.232 74.547-58.163 99.84-179.302 273.715-252.621 305.766-97.28 42.598-218.214-71.782-180.838-128.614s91.136 28.262 152.576-17.203c37.888-27.955 75.674-112.333 99.123-172.851h-569.754c23.45 60.621 61.235 144.896 99.123 172.851 61.44 45.466 115.2-39.629 152.576 17.203s-83.354 171.213-180.634 128.614c-73.318-32.154-194.355-206.029-252.621-305.766-16.384-28.16-24.474-49.664-28.467-63.078-4.813-10.65-7.578-22.528-7.578-34.918v-262.963c0-46.899 38.195-85.094 85.094-85.094h243.507c10.24 0 20.070 3.174 28.365 9.216l147.968 106.803 141.005-106.291c8.397-6.349 18.739-9.83 29.184-9.83h243.507c46.899 0 85.094 38.195 85.094 85.094v263.066c-0.102 8.090-1.229 15.974-3.379 23.45zM916.685 164.454h-215.245l-156.57 118.17c-8.397 6.349-18.739 9.728-29.184 9.728-10.24 0-20.070-3.174-28.467-9.216l-164.147-118.579h-215.757v238.899h809.37v-239.002zM394.854 364.237c-0.102 0-0.205 0-0.307 0l-260.608-0.205v-169.574h169.882l140.083 101.171c-4.813 61.542-35.328 68.608-49.050 68.608zM629.043 363.418c-13.722 0-44.134-7.066-48.947-68.506l140.083-101.171h169.882v169.574c0 0-260.813 0.102-261.018 0.102zM866.918 216.781h-139.264l-122.88 88.883c2.56 15.053 8.704 33.69 23.245 34.611l238.899-0.102v-123.392z" />
<glyph unicode="&#xe92e;" glyph-name="e92e" data-tags="" d="M191.822 533.353c-11.79 0-21.348-9.558-21.348-21.348v-128.083c0-11.79 9.558-21.348 21.348-21.348s21.348 9.558 21.348 21.348v128.083c0 11.79-9.558 21.348-21.348 21.348zM405.295 362.575c11.79 0 21.348 9.558 21.348 21.348v85.389c0 35.369-28.673 64.042-64.042 64.042h-85.389c-11.79 0-21.348-9.558-21.348-21.348v-128.083c0-11.79 9.558-21.348 21.348-21.348s21.348 9.558 21.348 21.348v106.735h64.042c11.79 0 21.348-9.558 21.348-21.348v-85.389c-0.002-11.788 9.554-21.346 21.346-21.346zM490.682 618.741c-11.79 0-21.348-9.558-21.348-21.348v-170.777c0-35.369 28.673-64.042 64.042-64.042 11.79 0 21.348 9.558 21.348 21.348s-9.558 21.348-21.348 21.348-21.348 9.558-21.348 21.348v64.042h21.348c11.79 0 21.348 9.558 21.348 21.348s-9.558 21.348-21.348 21.348h-21.348v64.042c0.002 11.788-9.556 21.344-21.346 21.344zM725.502 447.964c0 47.159-38.231 85.389-85.389 85.389s-85.389-38.231-85.389-85.389 38.231-85.389 85.389-85.389h64.042c11.79 0 21.348 9.558 21.348 21.348s-9.558 21.348-21.348 21.348h-64.042c-15.252 0-29.347 8.137-36.974 21.348h101.016c11.79-0.002 21.348 9.556 21.348 21.346zM603.139 469.312c11.792 20.419 37.903 27.416 58.322 15.624 6.488-3.746 11.878-9.136 15.624-15.624h-73.946zM789.544 618.741v0c-11.79 0-21.348-9.558-21.348-21.348-0.897-221.498-0.897-221.498 6.234-228.586l15.114 15.114 21.348 1.879c-0.512 9.136 0 131.499 0 211.507 0.048 11.79-9.472 21.386-21.262 21.432-0.030 0.002-0.058 0.002-0.086 0.002zM1014.586 609.691c-54.265 165.611-323.88 227.86-600.752 138.672-59.11-18.886-115.975-44.183-169.582-75.441-10.175-5.966-13.587-19.050-7.621-29.225s19.050-13.587 29.225-7.621c50.837 29.657 104.75 53.693 160.786 71.684 254.799 81.759 500.378 31.935 547.427-111.39 27.112-82.656-24.166-128.98-111.903-195.413-9.432-7.075-11.343-20.455-4.269-29.885 7.075-9.432 20.455-11.343 29.885-4.269 77.618 58.832 165.439 125.307 126.802 242.887zM800.259 274.283c-63.607-37.35-131.789-66.295-202.842-86.114-254.501-81.759-500.078-31.935-547.213 111.39-23.183 70.702 7.983 156.944 85.389 236.569 8.253 8.453 8.091 21.996-0.362 30.25s-21.996 8.091-30.25-0.362c-88.848-91.497-123.686-193.451-95.336-279.779 37.528-114.292 177.651-179.316 352.058-179.316 84.585 0.616 168.563 14.327 248.951 40.644 73.912 20.719 144.852 50.853 211.081 89.658 10.603 5.157 15.016 17.932 9.858 28.535s-17.932 15.016-28.535 9.858c-0.927-0.45-1.819-0.969-2.672-1.547l-0.13 0.214zM897.218 597.395c0 11.79-9.558 21.348-21.348 21.348h-0.426c-11.79 0-21.348-9.558-21.348-21.348s9.558-21.348 21.348-21.348c11.79 0 21.348 9.558 21.348 21.348h0.426zM213.298 597.395c0-11.79-9.558-21.348-21.348-21.348s-21.348 9.558-21.348 21.348c0 11.79 9.558 21.348 21.348 21.348s21.348-9.558 21.348-21.348z" />
<glyph unicode="&#xe92f;" glyph-name="e92f" data-tags="" d="M325.734 743.117h-29.389c-36.762 0-66.867-29.594-66.867-65.843v-11.674c0-36.25 30.106-65.843 66.867-65.843h29.389c10.547 0 19.046 8.499 19.046 18.842v105.779c0.102 10.342-8.499 18.739-19.046 18.739zM1001.37 232.55h-145.306c-6.861 0-12.288-5.427-12.288-12.186v-10.957c0-6.758-5.53-12.186-12.288-12.186h-36.454c-6.861 0-12.288 5.427-12.288 12.186v10.854c0 6.656-5.53 12.186-12.288 12.186h-152.986c-6.861 0-12.288-5.427-12.288-12.186v-85.606c0-21.299 17.613-38.707 39.219-38.707h330.138c21.606 0 39.219 17.408 39.219 38.707v85.709c0 6.656-5.53 12.186-12.39 12.186zM118.784 653.619h82.432v35.738h-100.25l17.818-35.738zM10.24 689.357v-22.016l6.861-13.722h30.515l-17.715 35.738h-19.661zM50.688 689.357l17.715-35.738h29.491l-17.715 35.738h-29.491zM960 799.949h-425.37c-32.358 0-82.637-11.776-128.102-31.13-21.504-9.114-35.226-30.208-35.226-53.35v-88.166c0-23.040 13.722-44.134 35.226-53.35 45.466-19.354 95.846-31.13 128.102-31.13h106.496c8.499 0 15.565-5.837 17.92-13.926 0 0 0-0.102 0-0.102l4.403-14.541h-18.227c-5.12 0-8.806-4.813-7.475-9.626 0 0 8.602-12.288 10.854-25.702 2.355-14.234 2.662-23.142 2.662-23.142 0.922-3.379 3.994-5.632 7.475-5.632h23.962l37.478-124.621h-40.243c-37.376 0-68.608-27.443-73.83-62.976h406.733c-5.325 35.533-36.454 62.976-73.933 62.976h-12.493l-61.542 204.8c-1.843 6.246 2.867 12.493 9.523 12.493h85.504c29.594 0 53.76 23.859 53.76 53.043v151.142c0.102 29.082-24.064 52.941-53.658 52.941zM936.755 609.997h-91.648c-6.349 0-11.469 5.018-11.469 11.264s5.12 11.264 11.469 11.264h91.648c6.349 0 11.469-5.018 11.469-11.264s-5.12-11.264-11.469-11.264zM936.755 659.149h-91.648c-6.349 0-11.469 5.018-11.469 11.264s5.12 11.264 11.469 11.264h91.648c6.349 0 11.469-5.018 11.469-11.264s-5.12-11.264-11.469-11.264zM936.755 708.301h-91.648c-6.349 0-11.469 5.018-11.469 11.264s5.12 11.264 11.469 11.264h91.648c6.349 0 11.469-5.018 11.469-11.264s-5.12-11.264-11.469-11.264z" />
<glyph unicode="&#xe930;" glyph-name="e930" data-tags="" d="M958.054 899.584h-892.109c-30.72 0-55.706-24.986-55.706-55.706v-791.654c0-30.822 24.986-55.706 55.706-55.706h892.006c30.822 0 55.706 24.986 55.706 55.706v791.654c0.102 30.72-24.883 55.706-55.603 55.706zM729.293 832.41c27.648 0 50.074-22.426 50.074-49.971 0-27.648-22.426-49.971-50.074-49.971s-49.971 22.426-49.971 49.971c-0.102 27.546 22.323 49.971 49.971 49.971zM729.293 665.088c27.648 0 50.074-22.426 50.074-49.971 0-27.648-22.426-50.074-50.074-50.074s-49.971 22.426-49.971 50.074c-0.102 27.648 22.323 49.971 49.971 49.971zM244.429 96.768h-133.837v334.541h100.352v-184.013h1.536c3.482-9.728 12.595-16.691 23.552-16.691h8.397v-133.837zM161.075 531.251c-46.182 0-83.661 37.478-83.661 83.661s37.478 83.661 83.661 83.661c46.182 0 83.661-37.478 83.661-83.661s-37.478-83.661-83.661-83.661zM411.648 96.768h-133.837v133.837h8.397c10.957 0 20.070 6.963 23.552 16.691h1.536v184.013h66.867v-184.013h1.536c3.482-9.728 12.595-16.691 23.552-16.691h8.397v-133.837zM361.472 565.043c-27.853 0-50.483 22.426-50.483 49.971s22.63 50.074 50.483 50.074c27.853 0 50.483-22.426 50.483-49.971 0-27.648-22.63-50.074-50.483-50.074zM578.867 96.768h-133.734v133.837h8.397c10.854 0 20.070 6.963 23.552 16.691h1.536v184.013h100.352v-334.541zM555.213 732.365h-420.864c-31.334 0-56.832 22.426-56.832 49.971s25.395 49.971 56.832 49.971h420.864c31.334 0 56.832-22.426 56.832-49.971 0-27.648-25.498-49.971-56.832-49.971zM612.352 96.768v334.541h100.352v-184.013h1.536c3.482-9.728 12.595-16.691 23.552-16.691h8.397v-133.837h-133.837zM913.408 96.768h-133.837v133.837h8.397c10.957 0 20.070 6.963 23.552 16.691h1.536v184.013h100.352v-334.541zM896.512 565.043c-27.648 0-49.971 22.426-49.971 50.074s22.426 49.971 49.971 49.971c27.648 0 49.971-22.426 49.971-49.971 0.102-27.648-22.323-50.074-49.971-50.074zM896.512 732.365c-27.648 0-49.971 22.426-49.971 49.971s22.426 49.971 49.971 49.971c27.648 0 49.971-22.426 49.971-49.971 0.102-27.648-22.323-49.971-49.971-49.971z" />
</font>
</defs>
</svg>
